  0
SECTION
  2
HEADER
  9
$ACADVER
  1
AC1027
  9
$ACADMAINTVER
 70
     8
  9
$DWGCODEPAGE
  3
ANSI_1252
  9
$REQUIREDVERSIONS
160
                 0
  9
$INSBASE
 10
0.0
 20
0.0
 30
0.0
  9
$EXTMIN
 10
0.0
 20
0.0
 30
0.0
  9
$EXTMAX
 10
1682.0
 20
1188.0
 30
0.0
  9
$LIMMIN
 10
0.0
 20
0.0
  9
$LIMMAX
 10
1682.0
 20
1188.0
  9
$ORTHOMODE
 70
     0
  9
$REGENMODE
 70
     1
  9
$FILLMODE
 70
     1
  9
$QTEXTMODE
 70
     0
  9
$MIRRTEXT
 70
     1
  9
$LTSCALE
 40
2.0
  9
$ATTMODE
 70
     1
  9
$TEXTSIZE
 40
7.0
  9
$TRACEWID
 40
1.0
  9
$TEXTSTYLE
  7
STANDARD
  9
$CLAYER
  8
0
  9
$CELTYPE
  6
ByLayer
  9
$CECOLOR
 62
   256
  9
$CELTSCALE
 40
1.0
  9
$DISPSILH
 70
     0
  9
$DIMSCALE
 40
1.0
  9
$DIMASZ
 40
6.604
  9
$DIMEXO
 40
2.0
  9
$DIMDLI
 40
3.75
  9
$DIMRND
 40
0.0
  9
$DIMDLE
 40
0.0
  9
$DIMEXE
 40
2.0
  9
$DIMTP
 40
0.0
  9
$DIMTM
 40
0.0
  9
$DIMTXT
 40
7.0
  9
$DIMCEN
 40
2.5
  9
$DIMTSZ
 40
0.0
  9
$DIMTOL
 70
     0
  9
$DIMLIM
 70
     0
  9
$DIMTIH
 70
     1
  9
$DIMTOH
 70
     1
  9
$DIMSE1
 70
     0
  9
$DIMSE2
 70
     0
  9
$DIMTAD
 70
     1
  9
$DIMZIN
 70
     0
  9
$DIMBLK
  1

  9
$DIMASO
 70
     1
  9
$DIMSHO
 70
     1
  9
$DIMPOST
  1

  9
$DIMAPOST
  1

  9
$DIMALT
 70
     0
  9
$DIMALTD
 70
     3
  9
$DIMALTF
 40
0.0393700787
  9
$DIMLFAC
 40
1.0
  9
$DIMTOFL
 70
     1
  9
$DIMTVP
 40
0.0
  9
$DIMTIX
 70
     0
  9
$DIMSOXD
 70
     0
  9
$DIMSAH
 70
     0
  9
$DIMBLK1
  1

  9
$DIMBLK2
  1

  9
$DIMSTYLE
  2
ISO-25
  9
$DIMCLRD
 70
     0
  9
$DIMCLRE
 70
     0
  9
$DIMCLRT
 70
     0
  9
$DIMTFAC
 40
1.0
  9
$DIMGAP
 40
3.048
  9
$DIMJUST
 70
     0
  9
$DIMSD1
 70
     0
  9
$DIMSD2
 70
     0
  9
$DIMTOLJ
 70
     0
  9
$DIMTZIN
 70
     0
  9
$DIMALTZ
 70
     0
  9
$DIMALTTZ
 70
     0
  9
$DIMUPT
 70
     0
  9
$DIMDEC
 70
     1
  9
$DIMTDEC
 70
     1
  9
$DIMALTU
 70
     2
  9
$DIMALTTD
 70
     3
  9
$DIMTXSTY
  7
STANDARD
  9
$DIMAUNIT
 70
     0
  9
$DIMADEC
 70
     1
  9
$DIMALTRND
 40
0.0
  9
$DIMAZIN
 70
     0
  9
$DIMDSEP
 70
    44
  9
$DIMATFIT
 70
     3
  9
$DIMFRAC
 70
     0
  9
$DIMLDRBLK
  1

  9
$DIMLUNIT
 70
     2
  9
$DIMLWD
 70
    -2
  9
$DIMLWE
 70
    -2
  9
$DIMTMOVE
 70
     0
  9
$DIMFXL
 40
1.0
  9
$DIMFXLON
 70
     0
  9
$DIMJOGANG
 40
0.7853981634
  9
$DIMTFILL
 70
     0
  9
$DIMTFILLCLR
 70
     0
  9
$DIMARCSYM
 70
     0
  9
$DIMLTYPE
  6

  9
$DIMLTEX1
  6

  9
$DIMLTEX2
  6

  9
$DIMTXTDIRECTION
 70
     0
  9
$LUNITS
 70
     2
  9
$LUPREC
 70
     1
  9
$SKETCHINC
 40
1.0
  9
$FILLETRAD
 40
10.0
  9
$AUNITS
 70
     0
  9
$AUPREC
 70
     1
  9
$MENU
  1
.
  9
$ELEVATION
 40
0.0
  9
$PELEVATION
 40
0.0
  9
$THICKNESS
 40
0.0
  9
$LIMCHECK
 70
     0
  9
$CHAMFERA
 40
0.0
  9
$CHAMFERB
 40
0.0
  9
$CHAMFERC
 40
0.0
  9
$CHAMFERD
 40
0.0
  9
$SKPOLY
 70
     0
  9
$TDCREATE
 40
2458150.642519884
  9
$TDUCREATE
 40
2458150.600853218
  9
$TDUPDATE
 40
2458150.642524016
  9
$TDUUPDATE
 40
2458150.60085735
  9
$TDINDWG
 40
0.0000000116
  9
$TDUSRTIMER
 40
0.0000000116
  9
$USRTIMER
 70
     1
  9
$ANGBASE
 50
0.0
  9
$ANGDIR
 70
     0
  9
$PDMODE
 70
     0
  9
$PDSIZE
 40
-1.0
  9
$PLINEWID
 40
0.0
  9
$SPLFRAME
 70
     0
  9
$SPLINETYPE
 70
     6
  9
$SPLINESEGS
 70
     8
  9
$HANDSEED
  5
5AF
  9
$SURFTAB1
 70
     6
  9
$SURFTAB2
 70
     6
  9
$SURFTYPE
 70
     6
  9
$SURFU
 70
     6
  9
$SURFV
 70
     6
  9
$UCSBASE
  2

  9
$UCSNAME
  2

  9
$UCSORG
 10
0.0
 20
0.0
 30
0.0
  9
$UCSXDIR
 10
1.0
 20
0.0
 30
0.0
  9
$UCSYDIR
 10
0.0
 20
1.0
 30
0.0
  9
$UCSORTHOREF
  2

  9
$UCSORTHOVIEW
 70
     0
  9
$UCSORGTOP
 10
0.0
 20
0.0
 30
0.0
  9
$UCSORGBOTTOM
 10
0.0
 20
0.0
 30
0.0
  9
$UCSORGLEFT
 10
0.0
 20
0.0
 30
0.0
  9
$UCSORGRIGHT
 10
0.0
 20
0.0
 30
0.0
  9
$UCSORGFRONT
 10
0.0
 20
0.0
 30
0.0
  9
$UCSORGBACK
 10
0.0
 20
0.0
 30
0.0
  9
$PUCSBASE
  2

  9
$PUCSNAME
  2

  9
$PUCSORG
 10
0.0
 20
0.0
 30
0.0
  9
$PUCSXDIR
 10
1.0
 20
0.0
 30
0.0
  9
$PUCSYDIR
 10
0.0
 20
1.0
 30
0.0
  9
$PUCSORTHOREF
  2

  9
$PUCSORTHOVIEW
 70
     0
  9
$PUCSORGTOP
 10
0.0
 20
0.0
 30
0.0
  9
$PUCSORGBOTTOM
 10
0.0
 20
0.0
 30
0.0
  9
$PUCSORGLEFT
 10
0.0
 20
0.0
 30
0.0
  9
$PUCSORGRIGHT
 10
0.0
 20
0.0
 30
0.0
  9
$PUCSORGFRONT
 10
0.0
 20
0.0
 30
0.0
  9
$PUCSORGBACK
 10
0.0
 20
0.0
 30
0.0
  9
$USERI1
 70
     0
  9
$USERI2
 70
     0
  9
$USERI3
 70
     0
  9
$USERI4
 70
     0
  9
$USERI5
 70
     0
  9
$USERR1
 40
0.0
  9
$USERR2
 40
0.0
  9
$USERR3
 40
0.0
  9
$USERR4
 40
0.0
  9
$USERR5
 40
0.0
  9
$WORLDVIEW
 70
     1
  9
$SHADEDGE
 70
     3
  9
$SHADEDIF
 70
    70
  9
$TILEMODE
 70
     1
  9
$MAXACTVP
 70
    64
  9
$PINSBASE
 10
0.0
 20
0.0
 30
0.0
  9
$PLIMCHECK
 70
     0
  9
$PEXTMIN
 10
1.0000000000E+20
 20
1.0000000000E+20
 30
1.0000000000E+20
  9
$PEXTMAX
 10
-1.0000000000E+20
 20
-1.0000000000E+20
 30
-1.0000000000E+20
  9
$PLIMMIN
 10
0.0
 20
0.0
  9
$PLIMMAX
 10
420.0
 20
297.0
  9
$UNITMODE
 70
     0
  9
$VISRETAIN
 70
     1
  9
$PLINEGEN
 70
     0
  9
$PSLTSCALE
 70
     1
  9
$TREEDEPTH
 70
  3020
  9
$CMLSTYLE
  2
Standard
  9
$CMLJUST
 70
     0
  9
$CMLSCALE
 40
20.0
  9
$PROXYGRAPHICS
 70
     1
  9
$MEASUREMENT
 70
     1
  9
$CELWEIGHT
370
    -1
  9
$ENDCAPS
280
     0
  9
$JOINSTYLE
280
     0
  9
$LWDISPLAY
290
     1
  9
$INSUNITS
 70
     4
  9
$HYPERLINKBASE
  1

  9
$STYLESHEET
  1

  9
$XEDIT
290
     1
  9
$CEPSNTYPE
380
     0
  9
$PSTYLEMODE
290
     1
  9
$FINGERPRINTGUID
  2
{C0049A6E-907F-45C6-8682-1D8617BADB8D}
  9
$VERSIONGUID
  2
{FAEB1C32-E019-11D5-929B-00C0DF256EC4}
  9
$EXTNAMES
290
     1
  9
$PSVPSCALE
 40
0.0
  9
$OLESTARTUP
290
     0
  9
$SORTENTS
280
   127
  9
$INDEXCTL
280
     0
  9
$HIDETEXT
280
     1
  9
$XCLIPFRAME
280
     2
  9
$HALOGAP
280
     0
  9
$OBSCOLOR
 70
   257
  9
$OBSLTYPE
280
     0
  9
$INTERSECTIONDISPLAY
280
     0
  9
$INTERSECTIONCOLOR
 70
   257
  9
$DIMASSOC
280
     2
  9
$PROJECTNAME
  1

  9
$CAMERADISPLAY
290
     0
  9
$LENSLENGTH
 40
50.0
  9
$CAMERAHEIGHT
 40
0.0
  9
$STEPSPERSEC
 40
2.0
  9
$STEPSIZE
 40
6.0
  9
$3DDWFPREC
 40
2.0
  9
$PSOLWIDTH
 40
5.0
  9
$PSOLHEIGHT
 40
80.0
  9
$LOFTANG1
 40
1.5707963268
  9
$LOFTANG2
 40
1.5707963268
  9
$LOFTMAG1
 40
0.0
  9
$LOFTMAG2
 40
0.0
  9
$LOFTPARAM
 70
     7
  9
$LOFTNORMALS
280
     1
  9
$LATITUDE
 40
37.795
  9
$LONGITUDE
 40
-122.394
  9
$NORTHDIRECTION
 40
0.0
  9
$TIMEZONE
 70
 -8000
  9
$LIGHTGLYPHDISPLAY
280
     1
  9
$TILEMODELIGHTSYNCH
280
     1
  9
$CMATERIAL
347
44
  9
$SOLIDHIST
280
     0
  9
$SHOWHIST
280
     1
  9
$DWFFRAME
280
     2
  9
$DGNFRAME
280
     2
  9
$REALWORLDSCALE
290
     1
  9
$INTERFERECOLOR
 62
   256
  9
$CSHADOW
280
     0
  9
$SHADOWPLANELOCATION
 40
0.0
  0
ENDSEC
  0
SECTION
  2
CLASSES
  0
CLASS
  1
ACDBDICTIONARYWDFLT
  2
AcDbDictionaryWithDefault
  3
ObjectDBX Classes
 90
        0
 91
        4
280
     0
281
     0
  0
CLASS
  1
VISUALSTYLE
  2
AcDbVisualStyle
  3
ObjectDBX Classes
 90
     4095
 91
        4
280
     0
281
     0
  0
CLASS
  1
MATERIAL
  2
AcDbMaterial
  3
ObjectDBX Classes
 90
     1153
 91
        4
280
     0
281
     0
  0
CLASS
  1
SCALE
  2
AcDbScale
  3
ObjectDBX Classes
 90
     1153
 91
        4
280
     0
281
     0
  0
CLASS
  1
TABLESTYLE
  2
AcDbTableStyle
  3
ObjectDBX Classes
 90
     4095
 91
        4
280
     0
281
     0
  0
CLASS
  1
MLEADERSTYLE
  2
AcDbMLeaderStyle
  3
ACDB_MLEADERSTYLE_CLASS
 90
     4095
 91
        4
280
     0
281
     0
  0
CLASS
  1
SUN
  2
AcDbSun
  3
SCENEOE
 90
     1153
 91
        4
280
     0
281
     0
  0
CLASS
  1
DICTIONARYVAR
  2
AcDbDictionaryVar
  3
ObjectDBX Classes
 90
        0
 91
        4
280
     0
281
     0
  0
CLASS
  1
CELLSTYLEMAP
  2
AcDbCellStyleMap
  3
ObjectDBX Classes
 90
     1152
 91
        4
280
     0
281
     0
  0
ENDSEC
  0
SECTION
  2
TABLES
  0
TABLE
  2
VPORT
  5
8
330
0
100
AcDbSymbolTable
 70
     1
  0
VPORT
  5
29
330
8
100
AcDbSymbolTableRecord
100
AcDbViewportTableRecord
  2
*Active
 70
     0
 10
0.0
 20
0.0
 11
1.0
 21
1.0
 12
841.0
 22
594.0
 13
0.0
 23
0.0
 14
10.0
 24
10.0
 15
10.0
 25
10.0
 16
0.0
 26
0.0
 36
1.0
 17
0.0
 27
0.0
 37
0.0
 40
1188.0
 41
1.4158249158
 42
50.0
 43
0.0
 44
0.0
 50
0.0
 51
0.0
 71
     0
 72
  2000
 73
     1
 74
     3
 75
     0
 76
     0
 77
     0
 78
     0
281
     0
 65
     1
110
0.0
120
0.0
130
0.0
111
1.0
121
0.0
131
0.0
112
0.0
122
1.0
132
0.0
 79
     0
146
0.0
 60
     3
 61
     5
292
     1
282
     1
141
0.0
142
0.0
 63
   250
361
6D
  0
ENDTAB
  0
TABLE
  2
LTYPE
  5
5
330
0
100
AcDbSymbolTable
 70
     6
  0
LTYPE
  5
14
330
5
100
AcDbSymbolTableRecord
100
AcDbLinetypeTableRecord
  2
ByBlock
 70
     0
  3

 72
    65
 73
     0
 40
0.0
  0
LTYPE
  5
15
330
5
100
AcDbSymbolTableRecord
100
AcDbLinetypeTableRecord
  2
ByLayer
 70
     0
  3

 72
    65
 73
     0
 40
0.0
  0
LTYPE
  5
16
330
5
100
AcDbSymbolTableRecord
100
AcDbLinetypeTableRecord
  2
Continuous
 70
     0
  3
Solid line
 72
    65
 73
     0
 40
0.0
  0
LTYPE
  5
6E
330
5
100
AcDbSymbolTableRecord
100
AcDbLinetypeTableRecord
  2
HIDDEN
 70
     0
  3
Hidden __ __ __ __ __ __ __ __ __ __ __ __ __ __
 72
    65
 73
     2
 40
1.905
 49
1.27
 74
     0
 49
-0.635
 74
     0
  0
LTYPE
  5
6F
330
5
100
AcDbSymbolTableRecord
100
AcDbLinetypeTableRecord
  2
PHANTOM
 70
     0
  3
Phantom ______  __  __  ______  __  __  ______
 72
    65
 73
     6
 40
12.7
 49
6.35
 74
     0
 49
-1.27
 74
     0
 49
1.27
 74
     0
 49
-1.27
 74
     0
 49
1.27
 74
     0
 49
-1.27
 74
     0
  0
LTYPE
  5
70
330
5
100
AcDbSymbolTableRecord
100
AcDbLinetypeTableRecord
  2
CENTER
 70
     0
  3
Center ____ _ ____ _ ____ _ ____ _ ____ _ ____
 72
    65
 73
     4
 40
10.16
 49
6.35
 74
     0
 49
-1.27
 74
     0
 49
1.27
 74
     0
 49
-1.27
 74
     0
  0
LTYPE
  5
71
330
5
100
AcDbSymbolTableRecord
100
AcDbLinetypeTableRecord
  2
CENTERX2
 70
     0
  3
Center (2x) ________  __  ________  __  _____
 72
    65
 73
     4
 40
20.32
 49
12.7
 74
     0
 49
-2.54
 74
     0
 49
2.54
 74
     0
 49
-2.54
 74
     0
  0
LTYPE
  5
72
330
5
100
AcDbSymbolTableRecord
100
AcDbLinetypeTableRecord
  2
DOT2
 70
     0
  3
Dot (.5x) ........................................
 72
    65
 73
     2
 40
0.635
 49
0.0
 74
     0
 49
-0.635
 74
     0
  0
ENDTAB
  0
TABLE
  2
LAYER
  5
2
330
0
100
AcDbSymbolTable
 70
     5
  0
LAYER
  5
10
330
2
100
AcDbSymbolTableRecord
100
AcDbLayerTableRecord
  2
0
 70
     0
 62
     7
  6
Continuous
370
    -3
390
F
347
46
348
0
  0
LAYER
  5
73
330
2
100
AcDbSymbolTableRecord
100
AcDbLayerTableRecord
  2
FORMAT
 70
     0
 62
     7
  6
Continuous
370
    15
390
F
347
46
348
0
  0
LAYER
  5
74
330
2
100
AcDbSymbolTableRecord
100
AcDbLayerTableRecord
  2
DIMENSION
 70
     0
 62
   218
  6
Continuous
370
    -3
390
F
347
46
348
0
  0
LAYER
  5
75
330
2
100
AcDbSymbolTableRecord
100
AcDbLayerTableRecord
  2
OTHER
 70
     0
 62
   218
  6
Continuous
370
    -3
390
F
347
46
348
0
  0
LAYER
  5
76
330
2
100
AcDbSymbolTableRecord
100
AcDbLayerTableRecord
  2
SLD-0
 70
     0
 62
     7
  6
Continuous
370
    -3
390
F
347
46
348
0
  0
ENDTAB
  0
TABLE
  2
STYLE
  5
3
330
0
100
AcDbSymbolTable
 70
     3
  0
STYLE
  5
11
330
3
100
AcDbSymbolTableRecord
100
AcDbTextStyleTableRecord
  2
STANDARD
 70
     0
 40
0.0
 41
1.0
 50
0.0
 71
     0
 42
7.0
  3
GOTHIC.TTF
  4

1001
ACAD
1000
CENTURY GOTHIC
1071
       34
  0
STYLE
  5
AF
330
3
100
AcDbSymbolTableRecord
100
AcDbTextStyleTableRecord
  2
SLDTEXTSTYLE0
 70
     0
 40
0.0
 41
0.913
 50
0.0
 71
     0
 42
7.0
  3
GOTHICB.TTF
  4

1001
ACAD
1000
Century Gothic
1071
 33554722
  0
STYLE
  5
B2
330
3
100
AcDbSymbolTableRecord
100
AcDbTextStyleTableRecord
  2
SLDTEXTSTYLE1
 70
     0
 40
0.0
 41
0.913
 50
0.0
 71
     0
 42
7.0
  3
GOTHIC.TTF
  4

1001
ACAD
1000
Century Gothic
1071
      290
  0
ENDTAB
  0
TABLE
  2
VIEW
  5
6
330
0
100
AcDbSymbolTable
 70
     0
  0
ENDTAB
  0
TABLE
  2
UCS
  5
7
330
0
100
AcDbSymbolTable
 70
     0
  0
ENDTAB
  0
TABLE
  2
APPID
  5
9
330
0
100
AcDbSymbolTable
 70
     1
  0
APPID
  5
12
330
9
100
AcDbSymbolTableRecord
100
AcDbRegAppTableRecord
  2
ACAD
 70
     0
  0
ENDTAB
  0
TABLE
  2
DIMSTYLE
  5
A
330
0
100
AcDbSymbolTable
 70
     4
100
AcDbDimStyleTable
  0
DIMSTYLE
105
27
330
A
100
AcDbSymbolTableRecord
100
AcDbDimStyleTableRecord
  2
ISO-25
 70
     0
 41
2.5
 42
0.625
 43
3.75
 44
1.25
 73
     0
 74
     0
 77
     1
 78
     8
140
2.5
141
2.5
143
0.0393700787
147
0.625
171
     3
172
     1
178
     0
271
     2
272
     2
274
     3
278
    44
283
     0
284
     8
340
11
  0
DIMSTYLE
105
210
102
{ACAD_REACTORS
330
20F
330
21A
330
3EB
330
41B
330
426
330
42F
330
439
330
443
330
44D
102
}
330
A
100
AcDbSymbolTableRecord
100
AcDbDimStyleTableRecord
  2
SLDDIMSTYLE0
 70
     0
 41
6.604
 44
0.0
 45
0.000000001
 73
     0
 74
     0
 77
     1
 78
    12
 79
     3
140
7.0
147
1.75
173
     1
178
     0
271
     1
272
     1
276
     2
284
    12
340
B2
  0
DIMSTYLE
105
225
330
A
100
AcDbSymbolTableRecord
100
AcDbDimStyleTableRecord
  2
SLDDIMSTYLE1
 70
     0
 41
2.032
 44
0.0
 45
0.000000001
146
2.032
147
0.0
173
     1
178
     0
271
     0
272
     0
276
     2
340
11
341
226
343
226
344
226
  0
DIMSTYLE
105
3F7
102
{ACAD_REACTORS
330
3F6
330
403
330
40F
330
597
102
}
330
A
100
AcDbSymbolTableRecord
100
AcDbDimStyleTableRecord
  2
SLDDIMSTYLE2
 70
     0
 41
6.604
 44
0.0
 45
0.000000001
 73
     0
 74
     0
 77
     1
 78
    12
 79
     3
140
7.0
147
1.75
172
     1
173
     1
178
     0
271
     1
272
     1
276
     2
284
    12
289
     0
340
B2
  0
ENDTAB
  0
TABLE
  2
BLOCK_RECORD
  5
1
330
0
100
AcDbSymbolTable
 70
    32
  0
BLOCK_RECORD
  5
1F
330
1
100
AcDbSymbolTableRecord
100
AcDbBlockTableRecord
  2
*Model_Space
340
22
 70
     0
280
     1
281
     0
  0
BLOCK_RECORD
  5
1B
330
1
100
AcDbSymbolTableRecord
100
AcDbBlockTableRecord
  2
*Paper_Space
340
1E
 70
     0
280
     1
281
     0
  0
BLOCK_RECORD
  5
23
330
1
100
AcDbSymbolTableRecord
100
AcDbBlockTableRecord
  2
*Paper_Space0
340
26
 70
     0
280
     1
281
     0
  0
BLOCK_RECORD
  5
77
330
1
100
AcDbSymbolTableRecord
100
AcDbBlockTableRecord
  2
CMCO Logo & Text
340
0
102
{BLKREFS
331
111
102
}
 70
     0
280
     1
281
     0
  0
BLOCK_RECORD
  5
AC
330
1
100
AcDbSymbolTableRecord
100
AcDbBlockTableRecord
  2
SW_NOTE_0
340
0
102
{BLKREFS
331
B5
102
}
 70
     0
280
     1
281
     0
  0
BLOCK_RECORD
  5
144
330
1
100
AcDbSymbolTableRecord
100
AcDbBlockTableRecord
  2
SW_NOTE_1
340
0
102
{BLKREFS
331
14B
102
}
 70
     0
280
     1
281
     0
  0
BLOCK_RECORD
  5
14C
330
1
100
AcDbSymbolTableRecord
100
AcDbBlockTableRecord
  2
SW_NOTE_2
340
0
102
{BLKREFS
331
152
102
}
 70
     0
280
     1
281
     0
  0
BLOCK_RECORD
  5
165
330
1
100
AcDbSymbolTableRecord
100
AcDbBlockTableRecord
  2
SW_NOTE_3
340
0
102
{BLKREFS
331
16A
102
}
 70
     0
280
     1
281
     0
  0
BLOCK_RECORD
  5
16B
330
1
100
AcDbSymbolTableRecord
100
AcDbBlockTableRecord
  2
SW_NOTE_4
340
0
102
{BLKREFS
331
170
102
}
 70
     0
280
     1
281
     0
  0
BLOCK_RECORD
  5
180
330
1
100
AcDbSymbolTableRecord
100
AcDbBlockTableRecord
  2
SW_NOTE_5
340
0
102
{BLKREFS
331
185
102
}
 70
     0
280
     1
281
     0
  0
BLOCK_RECORD
  5
18B
330
1
100
AcDbSymbolTableRecord
100
AcDbBlockTableRecord
  2
SW_NOTE_6
340
0
102
{BLKREFS
331
190
102
}
 70
     0
280
     1
281
     0
  0
BLOCK_RECORD
  5
19A
330
1
100
AcDbSymbolTableRecord
100
AcDbBlockTableRecord
  2
SW_TABLEANNOTATION_0
340
0
102
{BLKREFS
331
1DD
102
}
 70
     0
280
     1
281
     0
  0
BLOCK_RECORD
  5
211
330
1
100
AcDbSymbolTableRecord
100
AcDbBlockTableRecord
  2
_D
340
0
 70
     0
280
     1
281
     0
  0
BLOCK_RECORD
  5
21B
330
1
100
AcDbSymbolTableRecord
100
AcDbBlockTableRecord
  2
_D_1
340
0
 70
     0
280
     1
281
     0
  0
BLOCK_RECORD
  5
226
330
1
100
AcDbSymbolTableRecord
100
AcDbBlockTableRecord
  2
_DOT
340
0
 70
     0
280
     1
281
     0
  0
BLOCK_RECORD
  5
231
330
1
100
AcDbSymbolTableRecord
100
AcDbBlockTableRecord
  2
SW_CENTERMARKSYMBOL_0
340
0
102
{BLKREFS
331
23C
102
}
 70
     0
280
     1
281
     0
  0
BLOCK_RECORD
  5
23D
330
1
100
AcDbSymbolTableRecord
100
AcDbBlockTableRecord
  2
SW_CENTERMARKSYMBOL_1
340
0
102
{BLKREFS
331
248
102
}
 70
     0
280
     1
281
     0
  0
BLOCK_RECORD
  5
249
330
1
100
AcDbSymbolTableRecord
100
AcDbBlockTableRecord
  2
SW_CENTERMARKSYMBOL_2
340
0
102
{BLKREFS
331
254
102
}
 70
     0
280
     1
281
     0
  0
BLOCK_RECORD
  5
255
330
1
100
AcDbSymbolTableRecord
100
AcDbBlockTableRecord
  2
SW_CENTERMARKSYMBOL_3
340
0
102
{BLKREFS
331
260
102
}
 70
     0
280
     1
281
     0
  0
BLOCK_RECORD
  5
261
330
1
100
AcDbSymbolTableRecord
100
AcDbBlockTableRecord
  2
SW_CENTERMARKSYMBOL_4
340
0
102
{BLKREFS
331
26C
102
}
 70
     0
280
     1
281
     0
  0
BLOCK_RECORD
  5
26D
330
1
100
AcDbSymbolTableRecord
100
AcDbBlockTableRecord
  2
SW_CENTERMARKSYMBOL_5
340
0
102
{BLKREFS
331
278
102
}
 70
     0
280
     1
281
     0
  0
BLOCK_RECORD
  5
279
330
1
100
AcDbSymbolTableRecord
100
AcDbBlockTableRecord
  2
SW_CENTERMARKSYMBOL_6
340
0
102
{BLKREFS
331
284
102
}
 70
     0
280
     1
281
     0
  0
BLOCK_RECORD
  5
3EC
330
1
100
AcDbSymbolTableRecord
100
AcDbBlockTableRecord
  2
_D_2
340
0
 70
     0
280
     1
281
     0
  0
BLOCK_RECORD
  5
3F8
330
1
100
AcDbSymbolTableRecord
100
AcDbBlockTableRecord
  2
_D_3
340
0
 70
     0
280
     1
281
     0
  0
BLOCK_RECORD
  5
404
330
1
100
AcDbSymbolTableRecord
100
AcDbBlockTableRecord
  2
_D_4
340
0
 70
     0
280
     1
281
     0
  0
BLOCK_RECORD
  5
410
330
1
100
AcDbSymbolTableRecord
100
AcDbBlockTableRecord
  2
_D_5
340
0
 70
     0
280
     1
281
     0
  0
BLOCK_RECORD
  5
41C
330
1
100
AcDbSymbolTableRecord
100
AcDbBlockTableRecord
  2
_D_6
340
0
 70
     0
280
     1
281
     0
  0
BLOCK_RECORD
  5
427
330
1
100
AcDbSymbolTableRecord
100
AcDbBlockTableRecord
  2
_D_7
340
0
 70
     0
280
     1
281
     0
  0
BLOCK_RECORD
  5
430
330
1
100
AcDbSymbolTableRecord
100
AcDbBlockTableRecord
  2
_D_8
340
0
 70
     0
280
     1
281
     0
  0
BLOCK_RECORD
  5
43A
330
1
100
AcDbSymbolTableRecord
100
AcDbBlockTableRecord
  2
_D_9
340
0
 70
     0
280
     1
281
     0
  0
BLOCK_RECORD
  5
444
330
1
100
AcDbSymbolTableRecord
100
AcDbBlockTableRecord
  2
_D_10
340
0
 70
     0
280
     1
281
     0
  0
BLOCK_RECORD
  5
44E
330
1
100
AcDbSymbolTableRecord
100
AcDbBlockTableRecord
  2
_D_11
340
0
 70
     0
280
     1
281
     0
  0
BLOCK_RECORD
  5
466
330
1
100
AcDbSymbolTableRecord
100
AcDbBlockTableRecord
  2
SW_CENTERMARKSYMBOL_7
340
0
102
{BLKREFS
331
471
102
}
 70
     0
280
     1
281
     0
  0
BLOCK_RECORD
  5
598
330
1
100
AcDbSymbolTableRecord
100
AcDbBlockTableRecord
  2
_D_12
340
0
 70
     0
280
     1
281
     0
  0
ENDTAB
  0
ENDSEC
  0
SECTION
  2
BLOCKS
  0
BLOCK
  5
20
330
1F
100
AcDbEntity
  8
0
100
AcDbBlockBegin
  2
*Model_Space
 70
     0
 10
0.0
 20
0.0
 30
0.0
  3
*Model_Space
  1

  0
ENDBLK
  5
21
330
1F
100
AcDbEntity
  8
0
100
AcDbBlockEnd
  0
BLOCK
  5
1C
330
1B
100
AcDbEntity
 67
     1
  8
0
100
AcDbBlockBegin
  2
*Paper_Space
 70
     0
 10
0.0
 20
0.0
 30
0.0
  3
*Paper_Space
  1

  0
ENDBLK
  5
1D
330
1B
100
AcDbEntity
 67
     1
  8
0
100
AcDbBlockEnd
  0
BLOCK
  5
24
330
23
100
AcDbEntity
  8
0
100
AcDbBlockBegin
  2
*Paper_Space0
 70
     0
 10
0.0
 20
0.0
 30
0.0
  3
*Paper_Space0
  1

  0
ENDBLK
  5
25
330
23
100
AcDbEntity
  8
0
100
AcDbBlockEnd
  0
BLOCK
  5
78
330
77
100
AcDbEntity
  8
0
100
AcDbBlockBegin
  2
CMCO Logo & Text
 70
     0
 10
0.0
 20
0.0
 30
0.0
  3
CMCO Logo & Text
  1

  0
ARC
  5
7A
330
77
100
AcDbEntity
  8
FORMAT
100
AcDbCircle
 10
19.1204332065
 20
19.9815101884
 30
0.0
 40
5.411307120841973
100
AcDbArc
 50
39.3499288886
 51
334.4493548739
  0
ARC
  5
7B
330
77
100
AcDbEntity
  8
FORMAT
100
AcDbCircle
 10
19.1204332065
 20
19.9815101884
 30
0.0
 40
11.33068424159797
100
AcDbArc
 50
51.7489779047
 51
334.4487601115
  0
ARC
  5
7C
330
77
100
AcDbEntity
  8
FORMAT
100
AcDbCircle
 10
57.0396068173
 20
19.9815101884
 30
0.0
 40
11.33068424158312
100
AcDbArc
 50
275.27607425
 51
325.6512170193
  0
ARC
  5
7D
330
77
100
AcDbEntity
  8
FORMAT
100
AcDbCircle
 10
75.7492449771
 20
19.9815101884
 30
0.0
 40
11.33068424159816
100
AcDbArc
 50
214.3487829807
 51
154.5655020242
  0
ARC
  5
7E
330
77
100
AcDbEntity
  8
FORMAT
100
AcDbCircle
 10
57.0366797397
 20
20.1141525052
 30
0.0
 40
5.535281037731874
100
AcDbArc
 50
250.6448944402
 51
334.1425699046
  0
CIRCLE
  5
7F
330
77
100
AcDbEntity
  8
FORMAT
100
AcDbCircle
 10
75.7492449771
 20
19.9815101884
 30
0.0
 40
5.411307120839155
  0
ARC
  5
80
330
77
100
AcDbEntity
  8
FORMAT
100
AcDbCircle
 10
57.0396068173
 20
19.9815101884
 30
0.0
 40
11.33068424159809
100
AcDbArc
 50
52.4385601691
 51
134.5956484041
  0
ARC
  5
81
330
77
100
AcDbEntity
  8
FORMAT
100
AcDbCircle
 10
57.0396068173
 20
19.9815101884
 30
0.0
 40
5.41130712084191
100
AcDbArc
 50
39.6211103312
 51
159.7215366886
  0
ARC
  5
82
330
77
100
AcDbEntity
  8
FORMAT
100
AcDbCircle
 10
19.1204332065
 20
19.9815101884
 30
0.0
 40
5.411307120841973
100
AcDbArc
 50
39.3499288886
 51
334.4493548739
  0
ARC
  5
83
330
77
100
AcDbEntity
  8
FORMAT
100
AcDbCircle
 10
19.1204332065
 20
19.9815101884
 30
0.0
 40
11.33068424159797
100
AcDbArc
 50
51.7489779047
 51
334.4487601115
  0
CIRCLE
  5
84
330
77
100
AcDbEntity
  8
FORMAT
100
AcDbCircle
 10
75.7492449771
 20
19.9815101884
 30
0.0
 40
5.411307120844256
  0
ARC
  5
85
330
77
100
AcDbEntity
  8
FORMAT
100
AcDbCircle
 10
57.0396068173
 20
19.9815101884
 30
0.0
 40
11.33068424159809
100
AcDbArc
 50
52.4385601691
 51
134.5956484041
  0
ARC
  5
86
330
77
100
AcDbEntity
  8
FORMAT
100
AcDbCircle
 10
57.0396068173
 20
19.9815101884
 30
0.0
 40
5.41130712084191
100
AcDbArc
 50
39.6211103312
 51
159.7215366886
  0
ARC
  5
87
330
77
100
AcDbEntity
  8
FORMAT
100
AcDbCircle
 10
57.0396068173
 20
19.9815101884
 30
0.0
 40
11.33068424158312
100
AcDbArc
 50
275.27607425
 51
325.6512170193
  0
ARC
  5
88
330
77
100
AcDbEntity
  8
FORMAT
100
AcDbCircle
 10
75.7492449771
 20
19.9815101884
 30
0.0
 40
11.33068424159816
100
AcDbArc
 50
214.3487829807
 51
154.5655020242
  0
ARC
  5
89
330
77
100
AcDbEntity
  8
FORMAT
100
AcDbCircle
 10
57.0366797397
 20
20.1141525052
 30
0.0
 40
5.535281037731874
100
AcDbArc
 50
250.6448944402
 51
333.6919477563
  0
LINE
  5
8A
330
77
100
AcDbEntity
  8
FORMAT
100
AcDbLine
 10
49.2117984315
 20
8.6846305703
 30
0.0
 11
56.2629449138
 21
8.6846305703
 31
0.0
  0
LINE
  5
8B
330
77
100
AcDbEntity
  8
FORMAT
100
AcDbLine
 10
56.2629449138
 20
8.6846305703
 30
0.0
 11
46.2198468794
 21
30.2852213643
 31
0.0
  0
LINE
  5
8C
330
77
100
AcDbEntity
  8
FORMAT
100
AcDbLine
 10
46.2198468794
 20
30.2852213643
 30
0.0
 11
39.1687003971
 21
30.2852213643
 31
0.0
  0
LINE
  5
8D
330
77
100
AcDbEntity
  8
FORMAT
100
AcDbLine
 10
39.1687003971
 20
30.2852213643
 30
0.0
 11
49.2117984315
 21
8.6846305703
 31
0.0
  0
LINE
  5
8E
330
77
100
AcDbEntity
  8
FORMAT
100
AcDbLine
 10
23.3049319212
 20
23.4125763874
 30
0.0
 11
26.1353499948
 21
28.8795632246
 31
0.0
  0
LINE
  5
8F
330
77
100
AcDbEntity
  8
FORMAT
100
AcDbLine
 10
29.34297557
 20
15.0943808665
 30
0.0
 11
33.6631145576
 21
23.472623192
 31
0.0
  0
LINE
  5
90
330
77
100
AcDbEntity
  8
FORMAT
100
AcDbLine
 10
33.6631145576
 20
23.472623192
 30
0.0
 11
40.8762717834
 21
8.6846305703
 31
0.0
  0
LINE
  5
91
330
77
100
AcDbEntity
  8
FORMAT
100
AcDbLine
 10
40.8762717834
 20
8.6846305703
 30
0.0
 11
44.2035328853
 21
15.6247078583
 31
0.0
  0
LINE
  5
92
330
77
100
AcDbEntity
  8
FORMAT
100
AcDbLine
 10
44.2035328853
 20
15.6247078583
 30
0.0
 11
37.3871927314
 21
30.2852213643
 31
0.0
  0
LINE
  5
93
330
77
100
AcDbEntity
  8
FORMAT
100
AcDbLine
 10
37.3871927314
 20
30.2852213643
 30
0.0
 11
30.5454199112
 21
30.2852213643
 31
0.0
  0
LINE
  5
94
330
77
100
AcDbEntity
  8
FORMAT
100
AcDbLine
 10
30.5454199112
 20
30.2852213643
 30
0.0
 11
24.0025382607
 21
17.6475661026
 31
0.0
  0
LINE
  5
95
330
77
100
AcDbEntity
  8
FORMAT
100
AcDbLine
 10
55.2021660357
 20
14.8917109654
 30
0.0
 11
58.0815174119
 21
8.6988319737
 31
0.0
  0
LINE
  5
96
330
77
100
AcDbEntity
  8
FORMAT
100
AcDbLine
 10
65.5167661638
 20
24.8478006357
 30
0.0
 11
62.0177798859
 21
17.7000320648
 31
0.0
  0
LINE
  5
97
330
77
100
AcDbEntity
  8
FORMAT
100
AcDbLine
 10
61.2078194561
 20
23.4323431535
 30
0.0
 11
63.9469257839
 21
28.9633446377
 31
0.0
  0
LINE
  5
98
330
77
100
AcDbEntity
  8
FORMAT
100
AcDbLine
 10
49.0843450499
 20
28.0498567101
 30
0.0
 11
51.963696426
 21
21.8569777184
 31
0.0
  0
LINE
  5
99
330
77
100
AcDbEntity
  8
FORMAT
100
AcDbLine
 10
56.2629449138
 20
8.6846305703
 30
0.0
 11
49.2117984315
 21
8.6846305703
 31
0.0
  0
LINE
  5
9A
330
77
100
AcDbEntity
  8
FORMAT
100
AcDbLine
 10
49.2117984315
 20
8.6846305703
 30
0.0
 11
39.1687003971
 21
30.2852213643
 31
0.0
  0
LINE
  5
9B
330
77
100
AcDbEntity
  8
FORMAT
100
AcDbLine
 10
39.1687003971
 20
30.2852213643
 30
0.0
 11
46.2198468794
 21
30.2852213643
 31
0.0
  0
LINE
  5
9C
330
77
100
AcDbEntity
  8
FORMAT
100
AcDbLine
 10
46.2198468794
 20
30.2852213643
 30
0.0
 11
56.2629449138
 21
8.6846305703
 31
0.0
  0
LINE
  5
9D
330
77
100
AcDbEntity
  8
FORMAT
100
AcDbLine
 10
23.3049319212
 20
23.4125763874
 30
0.0
 11
26.1353499948
 21
28.8795632246
 31
0.0
  0
LINE
  5
9E
330
77
100
AcDbEntity
  8
FORMAT
100
AcDbLine
 10
29.34297557
 20
15.0943808665
 30
0.0
 11
33.6631145576
 21
23.472623192
 31
0.0
  0
LINE
  5
9F
330
77
100
AcDbEntity
  8
FORMAT
100
AcDbLine
 10
33.6631145576
 20
23.472623192
 30
0.0
 11
40.8762717834
 21
8.6846305703
 31
0.0
  0
LINE
  5
A0
330
77
100
AcDbEntity
  8
FORMAT
100
AcDbLine
 10
40.8762717834
 20
8.6846305703
 30
0.0
 11
44.2035328853
 21
15.6247078583
 31
0.0
  0
LINE
  5
A1
330
77
100
AcDbEntity
  8
FORMAT
100
AcDbLine
 10
44.2035328853
 20
15.6247078583
 30
0.0
 11
37.3871927314
 21
30.2852213643
 31
0.0
  0
LINE
  5
A2
330
77
100
AcDbEntity
  8
FORMAT
100
AcDbLine
 10
37.3871927314
 20
30.2852213643
 30
0.0
 11
30.5454199112
 21
30.2852213643
 31
0.0
  0
LINE
  5
A3
330
77
100
AcDbEntity
  8
FORMAT
100
AcDbLine
 10
30.5454199112
 20
30.2852213643
 30
0.0
 11
24.0025382607
 21
17.6475661026
 31
0.0
  0
LINE
  5
A4
330
77
100
AcDbEntity
  8
FORMAT
100
AcDbLine
 10
51.963696426
 20
21.8569777184
 30
0.0
 11
49.0843450499
 21
28.0498567101
 31
0.0
  0
LINE
  5
A5
330
77
100
AcDbEntity
  8
FORMAT
100
AcDbLine
 10
63.9469257839
 20
28.9633446377
 30
0.0
 11
61.2078194561
 21
23.4323431535
 31
0.0
  0
LINE
  5
A6
330
77
100
AcDbEntity
  8
FORMAT
100
AcDbLine
 10
65.5167661638
 20
24.8478006357
 30
0.0
 11
61.9986393563
 21
17.6609315753
 31
0.0
  0
LINE
  5
A7
330
77
100
AcDbEntity
  8
FORMAT
100
AcDbLine
 10
55.2021660357
 20
14.8917109654
 30
0.0
 11
58.0881202908
 21
8.6846305704
 31
0.0
  0
HATCH
  5
A8
330
77
100
AcDbEntity
  8
FORMAT
100
AcDbHatch
 10
0.0
 20
0.0
 30
0.0
210
0.0
220
0.0
230
1.0
  2
SOLID
 70
     1
 71
     0
 91
        1
 92
        0
 93
        9
 72
     1
 10
23.30493192122862
 20
23.41257638739949
 11
26.13534999482248
 21
28.87956322456792
 72
     2
 10
19.12043320646406
 20
19.98151018835806
 40
11.33068424159796
 50
51.74897790470669
 51
334.4487601115445
 73
     1
 72
     1
 10
29.34297557000054
 20
15.09438086650677
 11
33.66311455757831
 21
23.47262319199503
 72
     1
 10
33.66311455757831
 20
23.47262319199503
 11
40.87627178336461
 21
8.684630570343298
 72
     1
 10
40.87627178336461
 20
8.684630570343298
 11
44.20353288528611
 21
15.62470785825965
 72
     1
 10
44.20353288528611
 20
15.62470785825965
 11
37.38719273140001
 21
30.28522136428047
 72
     1
 10
37.38719273140001
 20
30.28522136428047
 11
30.54541991121695
 21
30.2852213642805
 72
     1
 10
30.54541991121695
 20
30.2852213642805
 11
24.00253826068965
 21
17.64756610257109
 72
     2
 10
19.12043320646406
 20
19.98151018835806
 40
5.411307120841782
 50
25.55064512611018
 51
320.6500711113743
 73
     0
 97
        0
 75
     0
 76
     1
 98
        1
 10
0.0
 20
0.0
  0
HATCH
  5
A9
330
77
100
AcDbEntity
  8
FORMAT
100
AcDbHatch
 10
0.0
 20
0.0
 30
0.0
210
0.0
220
0.0
230
1.0
  2
SOLID
 70
     1
 71
     0
 91
        1
 92
        0
 93
        4
 72
     1
 10
46.2198468793944
 20
30.2852213642805
 11
39.16870039708087
 21
30.28522136428047
 72
     1
 10
39.16870039708087
 20
30.28522136428047
 11
49.211798431533
 21
8.684630570343312
 72
     1
 10
49.211798431533
 20
8.684630570343312
 11
56.26294491384609
 21
8.684630570343312
 72
     1
 10
56.26294491384609
 20
8.684630570343312
 11
46.2198468793944
 21
30.2852213642805
 97
        0
 75
     0
 76
     1
 98
        1
 10
0.0
 20
0.0
  0
HATCH
  5
AA
330
77
100
AcDbEntity
  8
FORMAT
100
AcDbHatch
 10
0.0
 20
0.0
 30
0.0
210
0.0
220
0.0
230
1.0
  2
SOLID
 70
     1
 71
     0
 91
        1
 92
        0
 93
        4
 72
     1
 10
49.08434504985149
 20
28.04985671010266
 11
51.96369642603127
 21
21.85697771843592
 72
     2
 10
57.03960681725118
 20
19.98151018835807
 40
5.411307120841732
 50
200.2784633114133
 51
320.3788896688103
 73
     0
 72
     1
 10
61.20781945612475
 20
23.43234315348533
 11
63.94692578393979
 21
28.96334463769054
 72
     2
 10
57.03960681725118
 20
19.98151018835807
 40
11.33068424159791
 50
52.43856016906336
 51
134.5956484040859
 73
     1
 97
        0
 75
     0
 76
     1
 98
        1
 10
0.0
 20
0.0
  0
HATCH
  5
AB
330
77
100
AcDbEntity
  8
FORMAT
100
AcDbHatch
 10
0.0
 20
0.0
 30
0.0
210
0.0
220
0.0
230
1.0
  2
SOLID
 70
     1
 71
     0
 91
        2
 92
        0
 93
        5
 72
     1
 10
65.51676616378188
 20
24.84780063567235
 11
62.01777988588564
 21
17.70003206476653
 72
     2
 10
57.03667973973836
 20
20.11415250515981
 40
5.535281037731831
 50
25.85743009544654
 51
109.355105559841
 73
     0
 72
     1
 10
55.20216603571448
 20
14.89171096537953
 11
58.08151741189383
 21
8.698831973712768
 72
     2
 10
57.03960681725118
 20
19.98151018835807
 40
11.33068424158314
 50
275.2760742499747
 51
325.6512170192634
 73
     1
 72
     2
 10
75.74924497710577
 20
19.98151018835255
 40
11.33068424159803
 50
214.348782980653
 51
514.56550202416
 73
     1
 97
        0
 92
        0
 93
        1
 72
     2
 10
75.74924497710577
 20
19.98151018835255
 40
5.411307120839037
 50
0.0
 51
360.0
 73
     1
 97
        0
 75
     0
 76
     1
 98
        1
 10
0.0
 20
0.0
  0
INSERT
  5
B5
330
77
100
AcDbEntity
  8
FORMAT
 62
     7
100
AcDbBlockReference
  2
SW_NOTE_0
 10
99.6928574543
 20
25.5688466368
 30
0.0
  0
ENDBLK
  5
79
330
77
100
AcDbEntity
  8
0
100
AcDbBlockEnd
  0
BLOCK
  5
AD
330
AC
100
AcDbEntity
  8
0
100
AcDbBlockBegin
  2
SW_NOTE_0
 70
     0
 10
0.0
 20
0.0
 30
0.0
  3
SW_NOTE_0
  1

  0
MTEXT
  5
B0
330
AC
100
AcDbEntity
  8
FORMAT
 62
     0
100
AcDbMText
 10
0.0
 20
6.0833496094
 30
0.0
 40
4.7625
 41
0.0
 46
0.0
 71
     1
 72
     1
  1
Columbus McKinnon
  7
SLDTEXTSTYLE0
 73
     1
 44
1.0
  0
MTEXT
  5
B1
330
AC
100
AcDbEntity
  8
FORMAT
 62
     0
100
AcDbMText
 10
0.0
 20
-0.2666503139
 30
0.0
 40
4.7625
 41
0.0
 46
0.0
 71
     1
 72
     1
  1
Industrial Products GmbH
  7
SLDTEXTSTYLE0
 73
     1
 44
1.0
  0
MTEXT
  5
B3
330
AC
100
AcDbEntity
  8
FORMAT
 62
     0
100
AcDbMText
 10
0.0
 20
-6.6166502371
 30
0.0
 40
4.7625
 41
0.0
 46
0.0
 71
     1
 72
     1
  1
Yale-Allee 30
  7
SLDTEXTSTYLE1
 73
     1
 44
1.0
  0
MTEXT
  5
B4
330
AC
100
AcDbEntity
  8
FORMAT
 62
     0
100
AcDbMText
 10
0.0
 20
-12.9666501604
 30
0.0
 40
4.7625
 41
0.0
 46
0.0
 71
     1
 72
     1
  1
42329 Wuppertal / Germany
  7
SLDTEXTSTYLE1
 73
     1
 44
1.0
  0
ENDBLK
  5
AE
330
AC
100
AcDbEntity
  8
0
100
AcDbBlockEnd
  0
BLOCK
  5
145
330
144
100
AcDbEntity
  8
0
100
AcDbBlockBegin
  2
SW_NOTE_1
 70
     0
 10
0.0
 20
0.0
 30
0.0
  3
SW_NOTE_1
  1

  0
MTEXT
  5
147
330
144
100
AcDbEntity
  8
FORMAT
 62
     0
100
AcDbMText
 10
-4.7314941406
 20
0.0
 30
0.0
 40
3.7041666667
 41
0.0
 46
0.0
 71
     1
 72
     1
  1
Columbus McKinnon Industrial Products GmbH claims proprietary rights in the material disclosed hereon. This drawing and/or technical information is issued in confidence
  7
SLDTEXTSTYLE1
 11
-3.491481338843133E-15
 21
1.0
 31
0.0
 73
     1
 44
1.0
  0
MTEXT
  5
148
330
144
100
AcDbEntity
  8
FORMAT
 62
     0
100
AcDbMText
 10
0.2073946886
 20
0.0
 30
0.0
 40
3.7041666667
 41
0.0
 46
0.0
 71
     1
 72
     1
  1
for engineering information only and may not be reproduced or used to manufacture anything shown or referred to hereon without direct permission
  7
SLDTEXTSTYLE1
 11
-3.491481338843133E-15
 21
1.0
 31
0.0
 73
     1
 44
1.0
  0
MTEXT
  5
149
330
144
100
AcDbEntity
  8
FORMAT
 62
     0
100
AcDbMText
 10
5.1462835178
 20
0.0
 30
0.0
 40
3.7041666667
 41
0.0
 46
0.0
 71
     1
 72
     1
  1
from Yale to the user. This drawing and/or technical information is loaned for mutual assistance and is subject to recall by Yale at any time.
  7
SLDTEXTSTYLE1
 11
-3.491481338843133E-15
 21
1.0
 31
0.0
 73
     1
 44
1.0
  0
MTEXT
  5
14A
330
144
100
AcDbEntity
  8
FORMAT
 62
     0
100
AcDbMText
 10
10.085172347
 20
0.0
 30
0.0
 40
3.7041666667
 41
0.0
 46
0.0
 71
     1
 72
     1
  1
This drawing and/or technical information is the property of Yale.
  7
SLDTEXTSTYLE1
 11
-3.491481338843133E-15
 21
1.0
 31
0.0
 73
     1
 44
1.0
  0
ENDBLK
  5
146
330
144
100
AcDbEntity
  8
0
100
AcDbBlockEnd
  0
BLOCK
  5
14D
330
14C
100
AcDbEntity
  8
0
100
AcDbBlockBegin
  2
SW_NOTE_2
 70
     0
 10
0.0
 20
0.0
 30
0.0
  3
SW_NOTE_2
  1

  0
MTEXT
  5
14F
330
14C
100
AcDbEntity
  8
FORMAT
 62
     0
100
AcDbMText
 10
0.0
 20
8.1111328125
 30
0.0
 40
6.35
 41
0.0
 46
0.0
 71
     1
 72
     1
  1
Columbus McKinnon
  7
SLDTEXTSTYLE1
 73
     1
 44
1.0
  0
MTEXT
  5
150
330
14C
100
AcDbEntity
  8
FORMAT
 62
     0
100
AcDbMText
 10
0.0
 20
-0.3555337518
 30
0.0
 40
6.35
 41
0.0
 46
0.0
 71
     1
 72
     1
  1
Industrial Products GmbH
  7
SLDTEXTSTYLE1
 73
     1
 44
1.0
  0
MTEXT
  5
151
330
14C
100
AcDbEntity
  8
FORMAT
 62
     0
100
AcDbMText
 10
0.0
 20
-8.8222003162
 30
0.0
 40
6.35
 41
0.0
 46
0.0
 71
     1
 72
     1
  1
Wuppertal / Germany
  7
SLDTEXTSTYLE1
 73
     1
 44
1.0
  0
ENDBLK
  5
14E
330
14C
100
AcDbEntity
  8
0
100
AcDbBlockEnd
  0
BLOCK
  5
166
330
165
100
AcDbEntity
  8
0
100
AcDbBlockBegin
  2
SW_NOTE_3
 70
     0
 10
0.0
 20
0.0
 30
0.0
  3
SW_NOTE_3
  1

  0
MTEXT
  5
168
330
165
100
AcDbEntity
  8
SLD-0
 62
     0
100
AcDbMText
 10
20.091796875
 20
4.0555664063
 30
0.0
 40
3.175
 41
0.0
 46
0.0
 71
     2
 72
     1
  1
Edges According to
  7
SLDTEXTSTYLE1
 73
     1
 44
1.0
  0
MTEXT
  5
169
330
165
100
AcDbEntity
  8
SLD-0
 62
     0
100
AcDbMText
 10
20.2725976348
 20
-0.1777668759
 30
0.0
 40
3.175
 41
0.0
 46
0.0
 71
     2
 72
     1
  1
DIN 6784
  7
SLDTEXTSTYLE1
 73
     1
 44
1.0
  0
ENDBLK
  5
167
330
165
100
AcDbEntity
  8
0
100
AcDbBlockEnd
  0
BLOCK
  5
16C
330
16B
100
AcDbEntity
  8
0
100
AcDbBlockBegin
  2
SW_NOTE_4
 70
     0
 10
0.0
 20
0.0
 30
0.0
  3
SW_NOTE_4
  1

  0
MTEXT
  5
16E
330
16B
100
AcDbEntity
  8
SLD-0
 62
     0
100
AcDbMText
 10
20.984765625
 20
4.0555664063
 30
0.0
 40
3.175
 41
0.0
 46
0.0
 71
     2
 72
     1
  1
Specified Tolerances
  7
SLDTEXTSTYLE1
 73
     1
 44
1.0
  0
MTEXT
  5
16F
330
16B
100
AcDbEntity
  8
SLD-0
 62
     0
100
AcDbMText
 10
21.1236740634
 20
-0.1777668759
 30
0.0
 40
3.175
 41
0.0
 46
0.0
 71
     2
 72
     1
  1
ISO 8015
  7
SLDTEXTSTYLE1
 73
     1
 44
1.0
  0
ENDBLK
  5
16D
330
16B
100
AcDbEntity
  8
0
100
AcDbBlockEnd
  0
BLOCK
  5
181
330
180
100
AcDbEntity
  8
0
100
AcDbBlockBegin
  2
SW_NOTE_5
 70
     0
 10
0.0
 20
0.0
 30
0.0
  3
SW_NOTE_5
  1

  0
MTEXT
  5
183
330
180
100
AcDbEntity
  8
FORMAT
 62
     0
100
AcDbMText
 10
0.0
 20
8.1111328125
 30
0.0
 40
6.35
 41
0.0
 46
0.0
 71
     1
 72
     1
  1
1 
  7
SLDTEXTSTYLE1
 73
     1
 44
1.0
  0
MTEXT
  5
184
330
180
100
AcDbEntity
  8
FORMAT
 62
     0
100
AcDbMText
 10
9.3603702262
 20
-0.2388669729
 30
0.0
 40
6.35
 41
0.0
 46
0.0
 71
     1
 72
     1
  1
1
  7
SLDTEXTSTYLE1
 73
     1
 44
1.0
  0
ENDBLK
  5
182
330
180
100
AcDbEntity
  8
0
100
AcDbBlockEnd
  0
BLOCK
  5
18C
330
18B
100
AcDbEntity
  8
0
100
AcDbBlockBegin
  2
SW_NOTE_6
 70
     0
 10
0.0
 20
0.0
 30
0.0
  3
SW_NOTE_6
  1

  0
MTEXT
  5
18E
330
18B
100
AcDbEntity
  8
FORMAT
 62
     0
100
AcDbMText
 10
19.84375
 20
4.0555664062
 30
0.0
 40
3.175
 41
0.0
 46
0.0
 71
     2
 72
     1
  1
General Tolerances
  7
SLDTEXTSTYLE1
 73
     1
 44
1.0
  0
MTEXT
  5
18F
330
18B
100
AcDbEntity
  8
FORMAT
 62
     0
100
AcDbMText
 10
19.8617588893
 20
-0.1777668759
 30
0.0
 40
3.175
 41
0.0
 46
0.0
 71
     2
 72
     1
  1
ISO 2768-mk
  7
SLDTEXTSTYLE1
 73
     1
 44
1.0
  0
ENDBLK
  5
18D
330
18B
100
AcDbEntity
  8
0
100
AcDbBlockEnd
  0
BLOCK
  5
19B
330
19A
100
AcDbEntity
  8
0
100
AcDbBlockBegin
  2
SW_TABLEANNOTATION_0
 70
     0
 10
0.0
 20
0.0
 30
0.0
  3
SW_TABLEANNOTATION_0
  1

  0
LINE
  5
19D
330
19A
100
AcDbEntity
  8
SLD-0
 62
     0
100
AcDbLine
 10
0.0
 20
0.0
 30
0.0
 11
0.0
 21
-154.0
 31
0.0
  0
LINE
  5
19E
330
19A
100
AcDbEntity
  8
SLD-0
 62
     0
100
AcDbLine
 10
0.0
 20
-154.0
 30
0.0
 11
297.3061469349
 21
-154.0
 31
0.0
  0
LINE
  5
19F
330
19A
100
AcDbEntity
  8
SLD-0
 62
     0
100
AcDbLine
 10
297.3061469349
 20
-154.0
 30
0.0
 11
297.3061469349
 21
0.0
 31
0.0
  0
LINE
  5
1A0
330
19A
100
AcDbEntity
  8
SLD-0
 62
     0
100
AcDbLine
 10
297.3061469349
 20
0.0
 30
0.0
 11
0.0
 21
0.0
 31
0.0
  0
LINE
  5
1A1
330
19A
100
AcDbEntity
  8
SLD-0
 62
     0
100
AcDbLine
 10
33.3166677952
 20
0.0
 30
0.0
 11
33.3166677952
 21
-14.0
 31
0.0
  0
LINE
  5
1A2
330
19A
100
AcDbEntity
  8
SLD-0
 62
     0
100
AcDbLine
 10
101.3579829025
 20
0.0
 30
0.0
 11
101.3579829025
 21
-14.0
 31
0.0
  0
LINE
  5
1A3
330
19A
100
AcDbEntity
  8
SLD-0
 62
     0
100
AcDbLine
 10
266.4811488691
 20
0.0
 30
0.0
 11
266.4811488691
 21
-14.0
 31
0.0
  0
LINE
  5
1A4
330
19A
100
AcDbEntity
  8
SLD-0
 62
     0
100
AcDbLine
 10
33.3166677952
 20
-14.0
 30
0.0
 11
33.3166677952
 21
-154.0
 31
0.0
  0
LINE
  5
1A5
330
19A
100
AcDbEntity
  8
SLD-0
 62
     0
100
AcDbLine
 10
101.3579829025
 20
-14.0
 30
0.0
 11
101.3579829025
 21
-154.0
 31
0.0
  0
LINE
  5
1A6
330
19A
100
AcDbEntity
  8
SLD-0
 62
     0
100
AcDbLine
 10
266.4811488691
 20
-14.0
 30
0.0
 11
266.4811488691
 21
-154.0
 31
0.0
  0
LINE
  5
1A7
330
19A
100
AcDbEntity
  8
SLD-0
 62
     0
100
AcDbLine
 10
0.0
 20
-28.0
 30
0.0
 11
297.3061469349
 21
-28.0
 31
0.0
  0
LINE
  5
1A8
330
19A
100
AcDbEntity
  8
SLD-0
 62
     0
100
AcDbLine
 10
0.0
 20
-42.0
 30
0.0
 11
297.3061469349
 21
-42.0
 31
0.0
  0
LINE
  5
1A9
330
19A
100
AcDbEntity
  8
SLD-0
 62
     0
100
AcDbLine
 10
0.0
 20
-56.0
 30
0.0
 11
297.3061469349
 21
-56.0
 31
0.0
  0
LINE
  5
1AA
330
19A
100
AcDbEntity
  8
SLD-0
 62
     0
100
AcDbLine
 10
0.0
 20
-70.0
 30
0.0
 11
297.3061469349
 21
-70.0
 31
0.0
  0
LINE
  5
1AB
330
19A
100
AcDbEntity
  8
SLD-0
 62
     0
100
AcDbLine
 10
0.0
 20
-84.0
 30
0.0
 11
297.3061469349
 21
-84.0
 31
0.0
  0
LINE
  5
1AC
330
19A
100
AcDbEntity
  8
SLD-0
 62
     0
100
AcDbLine
 10
0.0
 20
-98.0
 30
0.0
 11
297.3061469349
 21
-98.0
 31
0.0
  0
LINE
  5
1AD
330
19A
100
AcDbEntity
  8
SLD-0
 62
     0
100
AcDbLine
 10
0.0
 20
-112.0
 30
0.0
 11
297.3061469349
 21
-112.0
 31
0.0
  0
LINE
  5
1AE
330
19A
100
AcDbEntity
  8
SLD-0
 62
     0
100
AcDbLine
 10
0.0
 20
-126.0
 30
0.0
 11
297.3061469349
 21
-126.0
 31
0.0
  0
LINE
  5
1AF
330
19A
100
AcDbEntity
  8
SLD-0
 62
     0
100
AcDbLine
 10
0.0
 20
-140.0
 30
0.0
 11
297.3061469349
 21
-140.0
 31
0.0
  0
LINE
  5
1B0
330
19A
100
AcDbEntity
  8
SLD-0
 62
     0
100
AcDbLine
 10
0.0
 20
-14.0
 30
0.0
 11
297.3061469349
 21
-14.0
 31
0.0
  0
MTEXT
  5
1B1
330
19A
100
AcDbEntity
  8
SLD-0
 62
     0
100
AcDbMText
 10
1.0
 20
-4.056598989
 30
0.0
 40
6.0
 41
0.0
 46
0.0
 71
     1
 72
     1
  1
POS-NR.
  7
SLDTEXTSTYLE1
 73
     1
 44
1.0
  0
MTEXT
  5
1B2
330
19A
100
AcDbEntity
  8
SLD-0
 62
     0
100
AcDbMText
 10
42.8081606918
 20
-4.056598989
 30
0.0
 40
6.0
 41
0.0
 46
0.0
 71
     1
 72
     1
  1
BENENNUNG
  7
SLDTEXTSTYLE1
 73
     1
 44
1.0
  0
MTEXT
  5
1B3
330
19A
100
AcDbEntity
  8
SLD-0
 62
     0
100
AcDbMText
 10
154.6612327392
 20
-4.056598989
 30
0.0
 40
6.0
 41
0.0
 46
0.0
 71
     1
 72
     1
  1
BESCHREIBUNG
  7
SLDTEXTSTYLE1
 73
     1
 44
1.0
  0
MTEXT
  5
1B4
330
19A
100
AcDbEntity
  8
SLD-0
 62
     0
100
AcDbMText
 10
267.4811488691
 20
-4.056598989
 30
0.0
 40
6.0
 41
0.0
 46
0.0
 71
     1
 72
     1
  1
MENGE
  7
SLDTEXTSTYLE1
 73
     1
 44
1.0
  0
MTEXT
  5
1B5
330
19A
100
AcDbEntity
  8
SLD-0
 62
     0
100
AcDbMText
 10
14.4416671935
 20
-17.3359372243
 30
0.0
 40
6.0
 41
0.0
 46
0.0
 71
     1
 72
     1
  1
1
  7
SLDTEXTSTYLE1
 73
     1
 44
1.0
  0
MTEXT
  5
1B6
330
19A
100
AcDbEntity
  8
SLD-0
 62
     0
100
AcDbMText
 10
34.3166677952
 20
-17.3359372243
 30
0.0
 40
6.0
 41
0.0
 46
0.0
 71
     1
 72
     1
  1
00508191
  7
SLDTEXTSTYLE1
 73
     1
 44
1.0
  0
MTEXT
  5
1B7
330
19A
100
AcDbEntity
  8
SLD-0
 62
     0
100
AcDbMText
 10
102.3579829025
 20
-17.3359372243
 30
0.0
 40
6.0
 41
0.0
 46
0.0
 71
     1
 72
     1
  1
Seitenplatte, kpl.
  7
SLDTEXTSTYLE1
 73
     1
 44
1.0
  0
MTEXT
  5
1B8
330
19A
100
AcDbEntity
  8
SLD-0
 62
     0
100
AcDbMText
 10
279.6769811979
 20
-17.3359372243
 30
0.0
 40
6.0
 41
0.0
 46
0.0
 71
     1
 72
     1
  1
1
  7
SLDTEXTSTYLE1
 73
     1
 44
1.0
  0
MTEXT
  5
1B9
330
19A
100
AcDbEntity
  8
SLD-0
 62
     0
100
AcDbMText
 10
14.4416671935
 20
-31.3359372243
 30
0.0
 40
6.0
 41
0.0
 46
0.0
 71
     1
 72
     1
  1
2
  7
SLDTEXTSTYLE1
 73
     1
 44
1.0
  0
MTEXT
  5
1BA
330
19A
100
AcDbEntity
  8
SLD-0
 62
     0
100
AcDbMText
 10
34.3166677952
 20
-31.3359372243
 30
0.0
 40
6.0
 41
0.0
 46
0.0
 71
     1
 72
     1
  1
00508196
  7
SLDTEXTSTYLE1
 73
     1
 44
1.0
  0
MTEXT
  5
1BB
330
19A
100
AcDbEntity
  8
SLD-0
 62
     0
100
AcDbMText
 10
102.3579829025
 20
-31.3359372243
 30
0.0
 40
6.0
 41
0.0
 46
0.0
 71
     1
 72
     1
  1
Seitenplatte, kpl.
  7
SLDTEXTSTYLE1
 73
     1
 44
1.0
  0
MTEXT
  5
1BC
330
19A
100
AcDbEntity
  8
SLD-0
 62
     0
100
AcDbMText
 10
279.6769811979
 20
-31.3359372243
 30
0.0
 40
6.0
 41
0.0
 46
0.0
 71
     1
 72
     1
  1
1
  7
SLDTEXTSTYLE1
 73
     1
 44
1.0
  0
MTEXT
  5
1BD
330
19A
100
AcDbEntity
  8
SLD-0
 62
     0
100
AcDbMText
 10
14.4416671935
 20
-46.056598989
 30
0.0
 40
6.0
 41
0.0
 46
0.0
 71
     1
 72
     1
  1
3
  7
SLDTEXTSTYLE1
 73
     1
 44
1.0
  0
MTEXT
  5
1BE
330
19A
100
AcDbEntity
  8
SLD-0
 62
     0
100
AcDbMText
 10
34.3166677952
 20
-46.056598989
 30
0.0
 40
6.0
 41
0.0
 46
0.0
 71
     1
 72
     1
  1
00508206
  7
SLDTEXTSTYLE1
 73
     1
 44
1.0
  0
MTEXT
  5
1BF
330
19A
100
AcDbEntity
  8
SLD-0
 62
     0
100
AcDbMText
 10
102.3579829025
 20
-46.056598989
 30
0.0
 40
6.0
 41
0.0
 46
0.0
 71
     1
 72
     1
  1
Traverse
  7
SLDTEXTSTYLE1
 73
     1
 44
1.0
  0
MTEXT
  5
1C0
330
19A
100
AcDbEntity
  8
SLD-0
 62
     0
100
AcDbMText
 10
279.6769811979
 20
-46.056598989
 30
0.0
 40
6.0
 41
0.0
 46
0.0
 71
     1
 72
     1
  1
1
  7
SLDTEXTSTYLE1
 73
     1
 44
1.0
  0
MTEXT
  5
1C1
330
19A
100
AcDbEntity
  8
SLD-0
 62
     0
100
AcDbMText
 10
14.4416671935
 20
-60.056598989
 30
0.0
 40
6.0
 41
0.0
 46
0.0
 71
     1
 72
     1
  1
4
  7
SLDTEXTSTYLE1
 73
     1
 44
1.0
  0
MTEXT
  5
1C2
330
19A
100
AcDbEntity
  8
SLD-0
 62
     0
100
AcDbMText
 10
34.3166677952
 20
-60.056598989
 30
0.0
 40
6.0
 41
0.0
 46
0.0
 71
     1
 72
     1
  1
00508210
  7
SLDTEXTSTYLE1
 73
     1
 44
1.0
  0
MTEXT
  5
1C3
330
19A
100
AcDbEntity
  8
SLD-0
 62
     0
100
AcDbMText
 10
102.3579829025
 20
-60.056598989
 30
0.0
 40
6.0
 41
0.0
 46
0.0
 71
     1
 72
     1
  1
Laufrolle , unverzahnt
  7
SLDTEXTSTYLE1
 73
     1
 44
1.0
  0
MTEXT
  5
1C4
330
19A
100
AcDbEntity
  8
SLD-0
 62
     0
100
AcDbMText
 10
279.6769811979
 20
-60.056598989
 30
0.0
 40
6.0
 41
0.0
 46
0.0
 71
     1
 72
     1
  1
4
  7
SLDTEXTSTYLE1
 73
     1
 44
1.0
  0
MTEXT
  5
1C5
330
19A
100
AcDbEntity
  8
SLD-0
 62
     0
100
AcDbMText
 10
14.4416671935
 20
-73.3359372243
 30
0.0
 40
6.0
 41
0.0
 46
0.0
 71
     1
 72
     1
  1
5
  7
SLDTEXTSTYLE1
 73
     1
 44
1.0
  0
MTEXT
  5
1C6
330
19A
100
AcDbEntity
  8
SLD-0
 62
     0
100
AcDbMText
 10
34.3166677952
 20
-73.3359372243
 30
0.0
 40
6.0
 41
0.0
 46
0.0
 71
     1
 72
     1
  1
09151079
  7
SLDTEXTSTYLE1
 73
     1
 44
1.0
  0
MTEXT
  5
1C7
330
19A
100
AcDbEntity
  8
SLD-0
 62
     0
100
AcDbMText
 10
102.3579829025
 20
-73.3359372243
 30
0.0
 40
6.0
 41
0.0
 46
0.0
 71
     1
 72
     1
  1
Rillenkugellager DIN 625 - 6008 - Z
  7
SLDTEXTSTYLE1
 73
     1
 44
1.0
  0
MTEXT
  5
1C8
330
19A
100
AcDbEntity
  8
SLD-0
 62
     0
100
AcDbMText
 10
279.6769811979
 20
-73.3359372243
 30
0.0
 40
6.0
 41
0.0
 46
0.0
 71
     1
 72
     1
  1
8
  7
SLDTEXTSTYLE1
 73
     1
 44
1.0
  0
MTEXT
  5
1C9
330
19A
100
AcDbEntity
  8
SLD-0
 62
     0
100
AcDbMText
 10
14.4416671935
 20
-87.3359372243
 30
0.0
 40
6.0
 41
0.0
 46
0.0
 71
     1
 72
     1
  1
6
  7
SLDTEXTSTYLE1
 73
     1
 44
1.0
  0
MTEXT
  5
1CA
330
19A
100
AcDbEntity
  8
SLD-0
 62
     0
100
AcDbMText
 10
34.3166677952
 20
-87.3359372243
 30
0.0
 40
6.0
 41
0.0
 46
0.0
 71
     1
 72
     1
  1
09129003
  7
SLDTEXTSTYLE1
 73
     1
 44
1.0
  0
MTEXT
  5
1CB
330
19A
100
AcDbEntity
  8
SLD-0
 62
     0
100
AcDbMText
 10
102.3579829025
 20
-87.3359372243
 30
0.0
 40
6.0
 41
0.0
 46
0.0
 71
     1
 72
     1
  1
Sicherungsring DIN 471 - 40 x 1,75
  7
SLDTEXTSTYLE1
 73
     1
 44
1.0
  0
MTEXT
  5
1CC
330
19A
100
AcDbEntity
  8
SLD-0
 62
     0
100
AcDbMText
 10
279.6769811979
 20
-87.3359372243
 30
0.0
 40
6.0
 41
0.0
 46
0.0
 71
     1
 72
     1
  1
4
  7
SLDTEXTSTYLE1
 73
     1
 44
1.0
  0
MTEXT
  5
1CD
330
19A
100
AcDbEntity
  8
SLD-0
 62
     0
100
AcDbMText
 10
14.4416671935
 20
-101.3359372243
 30
0.0
 40
6.0
 41
0.0
 46
0.0
 71
     1
 72
     1
  1
7
  7
SLDTEXTSTYLE1
 73
     1
 44
1.0
  0
MTEXT
  5
1CE
330
19A
100
AcDbEntity
  8
SLD-0
 62
     0
100
AcDbMText
 10
34.3166677952
 20
-101.3359372243
 30
0.0
 40
6.0
 41
0.0
 46
0.0
 71
     1
 72
     1
  1
09130060
  7
SLDTEXTSTYLE1
 73
     1
 44
1.0
  0
MTEXT
  5
1CF
330
19A
100
AcDbEntity
  8
SLD-0
 62
     0
100
AcDbMText
 10
102.3579829025
 20
-101.3359372243
 30
0.0
 40
6.0
 41
0.0
 46
0.0
 71
     1
 72
     1
  1
Sicherungsring DIN 472 - 68 x 2,5
  7
SLDTEXTSTYLE1
 73
     1
 44
1.0
  0
MTEXT
  5
1D0
330
19A
100
AcDbEntity
  8
SLD-0
 62
     0
100
AcDbMText
 10
279.6769811979
 20
-101.3359372243
 30
0.0
 40
6.0
 41
0.0
 46
0.0
 71
     1
 72
     1
  1
4
  7
SLDTEXTSTYLE1
 73
     1
 44
1.0
  0
MTEXT
  5
1D1
330
19A
100
AcDbEntity
  8
SLD-0
 62
     0
100
AcDbMText
 10
14.4416671935
 20
-115.3359372243
 30
0.0
 40
6.0
 41
0.0
 46
0.0
 71
     1
 72
     1
  1
8
  7
SLDTEXTSTYLE1
 73
     1
 44
1.0
  0
MTEXT
  5
1D2
330
19A
100
AcDbEntity
  8
SLD-0
 62
     0
100
AcDbMText
 10
34.3166677952
 20
-115.3359372243
 30
0.0
 40
6.0
 41
0.0
 46
0.0
 71
     1
 72
     1
  1
00508223
  7
SLDTEXTSTYLE1
 73
     1
 44
1.0
  0
MTEXT
  5
1D3
330
19A
100
AcDbEntity
  8
SLD-0
 62
     0
100
AcDbMText
 10
102.3579829025
 20
-115.3359372243
 30
0.0
 40
6.0
 41
0.0
 46
0.0
 71
     1
 72
     1
  1
Typenschild
  7
SLDTEXTSTYLE1
 73
     1
 44
1.0
  0
MTEXT
  5
1D4
330
19A
100
AcDbEntity
  8
SLD-0
 62
     0
100
AcDbMText
 10
279.6769811979
 20
-115.3359372243
 30
0.0
 40
6.0
 41
0.0
 46
0.0
 71
     1
 72
     1
  1
1
  7
SLDTEXTSTYLE1
 73
     1
 44
1.0
  0
MTEXT
  5
1D5
330
19A
100
AcDbEntity
  8
SLD-0
 62
     0
100
AcDbMText
 10
14.4416671935
 20
-129.3359372243
 30
0.0
 40
6.0
 41
0.0
 46
0.0
 71
     1
 72
     1
  1
9
  7
SLDTEXTSTYLE1
 73
     1
 44
1.0
  0
MTEXT
  5
1D6
330
19A
100
AcDbEntity
  8
SLD-0
 62
     0
100
AcDbMText
 10
34.3166677952
 20
-129.3359372243
 30
0.0
 40
6.0
 41
0.0
 46
0.0
 71
     1
 72
     1
  1
09128004
  7
SLDTEXTSTYLE1
 73
     1
 44
1.0
  0
MTEXT
  5
1D7
330
19A
100
AcDbEntity
  8
SLD-0
 62
     0
100
AcDbMText
 10
102.3579829025
 20
-129.3359372243
 30
0.0
 40
6.0
 41
0.0
 46
0.0
 71
     1
 72
     1
  1
Kerbnagel DIN EN 28746 - 3 x 4
  7
SLDTEXTSTYLE1
 73
     1
 44
1.0
  0
MTEXT
  5
1D8
330
19A
100
AcDbEntity
  8
SLD-0
 62
     0
100
AcDbMText
 10
279.6769811979
 20
-129.3359372243
 30
0.0
 40
6.0
 41
0.0
 46
0.0
 71
     1
 72
     1
  1
4
  7
SLDTEXTSTYLE1
 73
     1
 44
1.0
  0
MTEXT
  5
1D9
330
19A
100
AcDbEntity
  8
SLD-0
 62
     0
100
AcDbMText
 10
12.2250004895
 20
-144.056598989
 30
0.0
 40
6.0
 41
0.0
 46
0.0
 71
     1
 72
     1
  1
10
  7
SLDTEXTSTYLE1
 73
     1
 44
1.0
  0
MTEXT
  5
1DA
330
19A
100
AcDbEntity
  8
SLD-0
 62
     0
100
AcDbMText
 10
34.3166677952
 20
-144.056598989
 30
0.0
 40
6.0
 41
0.0
 46
0.0
 71
     1
 72
     1
  1
00007186
  7
SLDTEXTSTYLE1
 73
     1
 44
1.0
  0
MTEXT
  5
1DB
330
19A
100
AcDbEntity
  8
SLD-0
 62
     0
100
AcDbMText
 10
102.3579829025
 20
-144.056598989
 30
0.0
 40
6.0
 41
0.0
 46
0.0
 71
     1
 72
     1
  1
Lackfarbe, schwarz
  7
SLDTEXTSTYLE1
 73
     1
 44
1.0
  0
MTEXT
  5
1DC
330
19A
100
AcDbEntity
  8
SLD-0
 62
     0
100
AcDbMText
 10
274.1353145542
 20
-144.056598989
 30
0.0
 40
6.0
 41
0.0
 46
0.0
 71
     1
 72
     1
  1
0,15
  7
SLDTEXTSTYLE1
 73
     1
 44
1.0
  0
ENDBLK
  5
19C
330
19A
100
AcDbEntity
  8
0
100
AcDbBlockEnd
  0
BLOCK
  5
212
330
211
100
AcDbEntity
  8
0
100
AcDbBlockBegin
  2
_D
 70
     0
 10
0.0
 20
0.0
 30
0.0
  3
_D
  1

  0
SOLID
  5
214
330
211
100
AcDbEntity
  8
0
  6
Continuous
 62
     7
370
     0
100
AcDbTrace
 10
294.439238656
 20
1038.1265265565
 30
0.0
 11
301.043238656
 21
1037.1105265565
 31
0.0
 12
301.043238656
 22
1039.1425265565
 32
0.0
 13
301.043238656
 23
1039.1425265565
 33
0.0
  0
SOLID
  5
215
330
211
100
AcDbEntity
  8
0
  6
Continuous
 62
     7
370
     0
100
AcDbTrace
 10
503.439238656
 20
1038.1265265565
 30
0.0
 11
496.835238656
 21
1039.1425265565
 31
0.0
 12
496.835238656
 22
1037.1105265565
 32
0.0
 13
496.835238656
 23
1037.1105265565
 33
0.0
  0
LINE
  5
216
330
211
100
AcDbEntity
  8
0
  6
Continuous
 62
     7
370
     0
100
AcDbLine
 10
294.439238656
 20
931.1138722516
 30
0.0
 11
294.439238656
 21
1040.1265265565
 31
0.0
  0
LINE
  5
217
330
211
100
AcDbEntity
  8
0
  6
Continuous
 62
     7
370
     0
100
AcDbLine
 10
503.439238656
 20
931.1138722516
 30
0.0
 11
503.439238656
 21
1040.1265265565
 31
0.0
  0
LINE
  5
218
330
211
100
AcDbEntity
  8
0
  6
Continuous
 62
     7
370
     0
100
AcDbLine
 10
294.439238656
 20
1038.1265265565
 30
0.0
 11
503.439238656
 21
1038.1265265565
 31
0.0
  0
MTEXT
  5
219
330
211
100
AcDbEntity
  8
0
  6
Continuous
 62
     7
370
     0
100
AcDbMText
 10
391.1809053083
 20
1047.0679324572
 30
0.0
 40
7.0
 41
0.0
 46
0.0
 71
     1
 72
     1
  1
209
  7
SLDTEXTSTYLE1
 73
     1
 44
1.0
  0
ENDBLK
  5
213
330
211
100
AcDbEntity
  8
0
100
AcDbBlockEnd
  0
BLOCK
  5
21C
330
21B
100
AcDbEntity
  8
0
100
AcDbBlockBegin
  2
_D_1
 70
     0
 10
0.0
 20
0.0
 30
0.0
  3
_D_1
  1

  0
SOLID
  5
21E
330
21B
100
AcDbEntity
  8
SLD-0
100
AcDbTrace
 10
173.939238656
 20
1071.481153391
 30
0.0
 11
180.543238656
 21
1070.465153391
 31
0.0
 12
180.543238656
 22
1072.497153391
 32
0.0
 13
180.543238656
 23
1072.497153391
 33
0.0
  0
SOLID
  5
21F
330
21B
100
AcDbEntity
  8
SLD-0
100
AcDbTrace
 10
623.939238656
 20
1071.481153391
 30
0.0
 11
617.335238656
 21
1072.497153391
 31
0.0
 12
617.335238656
 22
1070.465153391
 32
0.0
 13
617.335238656
 23
1070.465153391
 33
0.0
  0
LINE
  5
220
330
21B
100
AcDbEntity
  8
SLD-0
100
AcDbLine
 10
173.939238656
 20
948.1138722516
 30
0.0
 11
173.939238656
 21
1073.481153391
 31
0.0
  0
LINE
  5
221
330
21B
100
AcDbEntity
  8
SLD-0
100
AcDbLine
 10
623.939238656
 20
948.1138722516
 30
0.0
 11
623.939238656
 21
1073.481153391
 31
0.0
  0
LINE
  5
222
330
21B
100
AcDbEntity
  8
SLD-0
100
AcDbLine
 10
173.939238656
 20
1071.481153391
 30
0.0
 11
623.939238656
 21
1071.481153391
 31
0.0
  0
MTEXT
  5
223
330
21B
100
AcDbEntity
  8
SLD-0
100
AcDbMText
 10
391.1809053083
 20
1080.4225592917
 30
0.0
 40
7.0
 41
0.0
 46
0.0
 71
     1
 72
     1
  1
450
  7
SLDTEXTSTYLE1
 73
     1
 44
1.0
  0
ENDBLK
  5
21D
330
21B
100
AcDbEntity
  8
0
100
AcDbBlockEnd
  0
BLOCK
  5
227
330
226
100
AcDbEntity
  8
0
100
AcDbBlockBegin
  2
_DOT
 70
     0
 10
0.0
 20
0.0
 30
0.0
  3
_DOT
  1

  0
POLYLINE
  5
229
330
226
100
AcDbEntity
  8
0
  6
ByBlock
 62
     0
100
AcDb2dPolyline
 66
     1
 10
0.0
 20
0.0
 30
0.0
 70
     1
 40
0.5
 41
0.5
  0
VERTEX
  5
22B
330
229
100
AcDbEntity
  8
0
  6
ByBlock
 62
     0
100
AcDbVertex
100
AcDb2dVertex
 10
-0.25
 20
0.0
 30
0.0
 42
1.0
  0
VERTEX
  5
22C
330
229
100
AcDbEntity
  8
0
  6
ByBlock
 62
     0
100
AcDbVertex
100
AcDb2dVertex
 10
0.25
 20
0.0
 30
0.0
 42
1.0
  0
SEQEND
  5
22D
330
229
100
AcDbEntity
  8
0
  6
ByBlock
 62
     0
  0
LINE
  5
22A
330
226
100
AcDbEntity
  8
0
  6
ByBlock
 62
     0
370
    -2
100
AcDbLine
 10
-0.5
 20
0.0
 30
0.0
 11
-1.0
 21
0.0
 31
0.0
  0
ENDBLK
  5
228
330
226
100
AcDbEntity
  8
0
100
AcDbBlockEnd
  0
BLOCK
  5
232
330
231
100
AcDbEntity
  8
0
100
AcDbBlockBegin
  2
SW_CENTERMARKSYMBOL_0
 70
     0
 10
0.0
 20
0.0
 30
0.0
  3
SW_CENTERMARKSYMBOL_0
  1

  0
LINE
  5
234
330
231
100
AcDbEntity
  8
SLD-0
 62
     0
100
AcDbLine
 10
0.0
 20
0.0
 30
0.0
 11
0.0
 21
2.5
 31
0.0
  0
LINE
  5
235
330
231
100
AcDbEntity
  8
SLD-0
 62
     0
100
AcDbLine
 10
0.0
 20
0.0
 30
0.0
 11
-2.5
 21
0.0
 31
0.0
  0
LINE
  5
236
330
231
100
AcDbEntity
  8
SLD-0
 62
     0
100
AcDbLine
 10
0.0
 20
0.0
 30
0.0
 11
0.0
 21
-2.5
 31
0.0
  0
LINE
  5
237
330
231
100
AcDbEntity
  8
SLD-0
 62
     0
100
AcDbLine
 10
0.0
 20
0.0
 30
0.0
 11
2.5
 21
0.0
 31
0.0
  0
LINE
  5
238
330
231
100
AcDbEntity
  8
SLD-0
 62
     0
100
AcDbLine
 10
0.0
 20
5.0
 30
0.0
 11
0.0
 21
25.0
 31
0.0
  0
LINE
  5
239
330
231
100
AcDbEntity
  8
SLD-0
 62
     0
100
AcDbLine
 10
-5.0
 20
0.0
 30
0.0
 11
-25.0
 21
0.0
 31
0.0
  0
LINE
  5
23A
330
231
100
AcDbEntity
  8
SLD-0
 62
     0
100
AcDbLine
 10
0.0
 20
-5.0
 30
0.0
 11
0.0
 21
-25.0
 31
0.0
  0
LINE
  5
23B
330
231
100
AcDbEntity
  8
SLD-0
 62
     0
100
AcDbLine
 10
5.0
 20
0.0
 30
0.0
 11
25.0
 21
0.0
 31
0.0
  0
ENDBLK
  5
233
330
231
100
AcDbEntity
  8
0
100
AcDbBlockEnd
  0
BLOCK
  5
23E
330
23D
100
AcDbEntity
  8
0
100
AcDbBlockBegin
  2
SW_CENTERMARKSYMBOL_1
 70
     0
 10
0.0
 20
0.0
 30
0.0
  3
SW_CENTERMARKSYMBOL_1
  1

  0
LINE
  5
240
330
23D
100
AcDbEntity
  8
SLD-0
 62
     0
100
AcDbLine
 10
0.0
 20
0.0
 30
0.0
 11
0.0
 21
2.5
 31
0.0
  0
LINE
  5
241
330
23D
100
AcDbEntity
  8
SLD-0
 62
     0
100
AcDbLine
 10
0.0
 20
0.0
 30
0.0
 11
-2.5
 21
0.0
 31
0.0
  0
LINE
  5
242
330
23D
100
AcDbEntity
  8
SLD-0
 62
     0
100
AcDbLine
 10
0.0
 20
0.0
 30
0.0
 11
0.0
 21
-2.5
 31
0.0
  0
LINE
  5
243
330
23D
100
AcDbEntity
  8
SLD-0
 62
     0
100
AcDbLine
 10
0.0
 20
0.0
 30
0.0
 11
2.5
 21
0.0
 31
0.0
  0
LINE
  5
244
330
23D
100
AcDbEntity
  8
SLD-0
 62
     0
100
AcDbLine
 10
0.0
 20
5.0
 30
0.0
 11
0.0
 21
223.0654751291
 31
0.0
  0
LINE
  5
245
330
23D
100
AcDbEntity
  8
SLD-0
 62
     0
100
AcDbLine
 10
-5.0
 20
0.0
 30
0.0
 11
-45.0
 21
0.0
 31
0.0
  0
LINE
  5
246
330
23D
100
AcDbEntity
  8
SLD-0
 62
     0
100
AcDbLine
 10
0.0
 20
-5.0
 30
0.0
 11
0.0
 21
-70.9222367033
 31
0.0
  0
LINE
  5
247
330
23D
100
AcDbEntity
  8
SLD-0
 62
     0
100
AcDbLine
 10
5.0
 20
0.0
 30
0.0
 11
45.0
 21
0.0
 31
0.0
  0
ENDBLK
  5
23F
330
23D
100
AcDbEntity
  8
0
100
AcDbBlockEnd
  0
BLOCK
  5
24A
330
249
100
AcDbEntity
  8
0
100
AcDbBlockBegin
  2
SW_CENTERMARKSYMBOL_2
 70
     0
 10
0.0
 20
0.0
 30
0.0
  3
SW_CENTERMARKSYMBOL_2
  1

  0
LINE
  5
24C
330
249
100
AcDbEntity
  8
SLD-0
 62
     0
100
AcDbLine
 10
0.0
 20
0.0
 30
0.0
 11
0.0
 21
2.5
 31
0.0
  0
LINE
  5
24D
330
249
100
AcDbEntity
  8
SLD-0
 62
     0
100
AcDbLine
 10
0.0
 20
0.0
 30
0.0
 11
-2.5
 21
0.0
 31
0.0
  0
LINE
  5
24E
330
249
100
AcDbEntity
  8
SLD-0
 62
     0
100
AcDbLine
 10
0.0
 20
0.0
 30
0.0
 11
0.0
 21
-2.5
 31
0.0
  0
LINE
  5
24F
330
249
100
AcDbEntity
  8
SLD-0
 62
     0
100
AcDbLine
 10
0.0
 20
0.0
 30
0.0
 11
2.5
 21
0.0
 31
0.0
  0
LINE
  5
250
330
249
100
AcDbEntity
  8
SLD-0
 62
     0
100
AcDbLine
 10
0.0
 20
5.0
 30
0.0
 11
0.0
 21
24.5
 31
0.0
  0
LINE
  5
251
330
249
100
AcDbEntity
  8
SLD-0
 62
     0
100
AcDbLine
 10
-5.0
 20
0.0
 30
0.0
 11
-24.5
 21
0.0
 31
0.0
  0
LINE
  5
252
330
249
100
AcDbEntity
  8
SLD-0
 62
     0
100
AcDbLine
 10
0.0
 20
-5.0
 30
0.0
 11
0.0
 21
-24.5
 31
0.0
  0
LINE
  5
253
330
249
100
AcDbEntity
  8
SLD-0
 62
     0
100
AcDbLine
 10
5.0
 20
0.0
 30
0.0
 11
24.5
 21
0.0
 31
0.0
  0
ENDBLK
  5
24B
330
249
100
AcDbEntity
  8
0
100
AcDbBlockEnd
  0
BLOCK
  5
256
330
255
100
AcDbEntity
  8
0
100
AcDbBlockBegin
  2
SW_CENTERMARKSYMBOL_3
 70
     0
 10
0.0
 20
0.0
 30
0.0
  3
SW_CENTERMARKSYMBOL_3
  1

  0
LINE
  5
258
330
255
100
AcDbEntity
  8
SLD-0
 62
     0
100
AcDbLine
 10
0.0
 20
0.0
 30
0.0
 11
0.0
 21
2.5
 31
0.0
  0
LINE
  5
259
330
255
100
AcDbEntity
  8
SLD-0
 62
     0
100
AcDbLine
 10
0.0
 20
0.0
 30
0.0
 11
-2.5
 21
0.0
 31
0.0
  0
LINE
  5
25A
330
255
100
AcDbEntity
  8
SLD-0
 62
     0
100
AcDbLine
 10
0.0
 20
0.0
 30
0.0
 11
0.0
 21
-2.5
 31
0.0
  0
LINE
  5
25B
330
255
100
AcDbEntity
  8
SLD-0
 62
     0
100
AcDbLine
 10
0.0
 20
0.0
 30
0.0
 11
2.5
 21
0.0
 31
0.0
  0
LINE
  5
25C
330
255
100
AcDbEntity
  8
SLD-0
 62
     0
100
AcDbLine
 10
0.0
 20
5.0
 30
0.0
 11
0.0
 21
5.1
 31
0.0
  0
LINE
  5
25D
330
255
100
AcDbEntity
  8
SLD-0
 62
     0
100
AcDbLine
 10
-5.0
 20
0.0
 30
0.0
 11
-5.1
 21
0.0
 31
0.0
  0
LINE
  5
25E
330
255
100
AcDbEntity
  8
SLD-0
 62
     0
100
AcDbLine
 10
0.0
 20
-5.0
 30
0.0
 11
0.0
 21
-5.1
 31
0.0
  0
LINE
  5
25F
330
255
100
AcDbEntity
  8
SLD-0
 62
     0
100
AcDbLine
 10
5.0
 20
0.0
 30
0.0
 11
5.1
 21
0.0
 31
0.0
  0
ENDBLK
  5
257
330
255
100
AcDbEntity
  8
0
100
AcDbBlockEnd
  0
BLOCK
  5
262
330
261
100
AcDbEntity
  8
0
100
AcDbBlockBegin
  2
SW_CENTERMARKSYMBOL_4
 70
     0
 10
0.0
 20
0.0
 30
0.0
  3
SW_CENTERMARKSYMBOL_4
  1

  0
LINE
  5
264
330
261
100
AcDbEntity
  8
SLD-0
 62
     0
100
AcDbLine
 10
0.0
 20
0.0
 30
0.0
 11
0.0
 21
2.5
 31
0.0
  0
LINE
  5
265
330
261
100
AcDbEntity
  8
SLD-0
 62
     0
100
AcDbLine
 10
0.0
 20
0.0
 30
0.0
 11
-2.5
 21
0.0
 31
0.0
  0
LINE
  5
266
330
261
100
AcDbEntity
  8
SLD-0
 62
     0
100
AcDbLine
 10
0.0
 20
0.0
 30
0.0
 11
0.0
 21
-2.5
 31
0.0
  0
LINE
  5
267
330
261
100
AcDbEntity
  8
SLD-0
 62
     0
100
AcDbLine
 10
0.0
 20
0.0
 30
0.0
 11
2.5
 21
0.0
 31
0.0
  0
LINE
  5
268
330
261
100
AcDbEntity
  8
SLD-0
 62
     0
100
AcDbLine
 10
0.0
 20
5.0
 30
0.0
 11
0.0
 21
5.1
 31
0.0
  0
LINE
  5
269
330
261
100
AcDbEntity
  8
SLD-0
 62
     0
100
AcDbLine
 10
-5.0
 20
0.0
 30
0.0
 11
-5.1
 21
0.0
 31
0.0
  0
LINE
  5
26A
330
261
100
AcDbEntity
  8
SLD-0
 62
     0
100
AcDbLine
 10
0.0
 20
-5.0
 30
0.0
 11
0.0
 21
-5.1
 31
0.0
  0
LINE
  5
26B
330
261
100
AcDbEntity
  8
SLD-0
 62
     0
100
AcDbLine
 10
5.0
 20
0.0
 30
0.0
 11
5.1
 21
0.0
 31
0.0
  0
ENDBLK
  5
263
330
261
100
AcDbEntity
  8
0
100
AcDbBlockEnd
  0
BLOCK
  5
26E
330
26D
100
AcDbEntity
  8
0
100
AcDbBlockBegin
  2
SW_CENTERMARKSYMBOL_5
 70
     0
 10
0.0
 20
0.0
 30
0.0
  3
SW_CENTERMARKSYMBOL_5
  1

  0
LINE
  5
270
330
26D
100
AcDbEntity
  8
SLD-0
 62
     0
100
AcDbLine
 10
0.0
 20
0.0
 30
0.0
 11
0.0
 21
2.5
 31
0.0
  0
LINE
  5
271
330
26D
100
AcDbEntity
  8
SLD-0
 62
     0
100
AcDbLine
 10
0.0
 20
0.0
 30
0.0
 11
-2.5
 21
0.0
 31
0.0
  0
LINE
  5
272
330
26D
100
AcDbEntity
  8
SLD-0
 62
     0
100
AcDbLine
 10
0.0
 20
0.0
 30
0.0
 11
0.0
 21
-2.5
 31
0.0
  0
LINE
  5
273
330
26D
100
AcDbEntity
  8
SLD-0
 62
     0
100
AcDbLine
 10
0.0
 20
0.0
 30
0.0
 11
2.5
 21
0.0
 31
0.0
  0
LINE
  5
274
330
26D
100
AcDbEntity
  8
SLD-0
 62
     0
100
AcDbLine
 10
0.0
 20
5.0
 30
0.0
 11
0.0
 21
5.1
 31
0.0
  0
LINE
  5
275
330
26D
100
AcDbEntity
  8
SLD-0
 62
     0
100
AcDbLine
 10
-5.0
 20
0.0
 30
0.0
 11
-5.1
 21
0.0
 31
0.0
  0
LINE
  5
276
330
26D
100
AcDbEntity
  8
SLD-0
 62
     0
100
AcDbLine
 10
0.0
 20
-5.0
 30
0.0
 11
0.0
 21
-5.1
 31
0.0
  0
LINE
  5
277
330
26D
100
AcDbEntity
  8
SLD-0
 62
     0
100
AcDbLine
 10
5.0
 20
0.0
 30
0.0
 11
5.1
 21
0.0
 31
0.0
  0
ENDBLK
  5
26F
330
26D
100
AcDbEntity
  8
0
100
AcDbBlockEnd
  0
BLOCK
  5
27A
330
279
100
AcDbEntity
  8
0
100
AcDbBlockBegin
  2
SW_CENTERMARKSYMBOL_6
 70
     0
 10
0.0
 20
0.0
 30
0.0
  3
SW_CENTERMARKSYMBOL_6
  1

  0
LINE
  5
27C
330
279
100
AcDbEntity
  8
SLD-0
 62
     0
100
AcDbLine
 10
0.0
 20
0.0
 30
0.0
 11
0.0
 21
2.5
 31
0.0
  0
LINE
  5
27D
330
279
100
AcDbEntity
  8
SLD-0
 62
     0
100
AcDbLine
 10
0.0
 20
0.0
 30
0.0
 11
-2.5
 21
0.0
 31
0.0
  0
LINE
  5
27E
330
279
100
AcDbEntity
  8
SLD-0
 62
     0
100
AcDbLine
 10
0.0
 20
0.0
 30
0.0
 11
0.0
 21
-2.5
 31
0.0
  0
LINE
  5
27F
330
279
100
AcDbEntity
  8
SLD-0
 62
     0
100
AcDbLine
 10
0.0
 20
0.0
 30
0.0
 11
2.5
 21
0.0
 31
0.0
  0
LINE
  5
280
330
279
100
AcDbEntity
  8
SLD-0
 62
     0
100
AcDbLine
 10
0.0
 20
5.0
 30
0.0
 11
0.0
 21
5.1
 31
0.0
  0
LINE
  5
281
330
279
100
AcDbEntity
  8
SLD-0
 62
     0
100
AcDbLine
 10
-5.0
 20
0.0
 30
0.0
 11
-5.1
 21
0.0
 31
0.0
  0
LINE
  5
282
330
279
100
AcDbEntity
  8
SLD-0
 62
     0
100
AcDbLine
 10
0.0
 20
-5.0
 30
0.0
 11
0.0
 21
-5.1
 31
0.0
  0
LINE
  5
283
330
279
100
AcDbEntity
  8
SLD-0
 62
     0
100
AcDbLine
 10
5.0
 20
0.0
 30
0.0
 11
5.1
 21
0.0
 31
0.0
  0
ENDBLK
  5
27B
330
279
100
AcDbEntity
  8
0
100
AcDbBlockEnd
  0
BLOCK
  5
3ED
330
3EC
100
AcDbEntity
  8
0
100
AcDbBlockBegin
  2
_D_2
 70
     0
 10
0.0
 20
0.0
 30
0.0
  3
_D_2
  1

  0
SOLID
  5
3EF
330
3EC
100
AcDbEntity
  8
SLD-0
100
AcDbTrace
 10
1416.9537841614
 20
1102.6138722516
 30
0.0
 11
1410.3497841614
 21
1103.6298722516
 31
0.0
 12
1410.3497841614
 22
1101.5978722516
 32
0.0
 13
1410.3497841614
 23
1101.5978722516
 33
0.0
  0
SOLID
  5
3F0
330
3EC
100
AcDbEntity
  8
SLD-0
100
AcDbTrace
 10
1196.9537841614
 20
1102.6138722516
 30
0.0
 11
1203.5577841614
 21
1101.5978722516
 31
0.0
 12
1203.5577841614
 22
1103.6298722516
 32
0.0
 13
1203.5577841614
 23
1103.6298722516
 33
0.0
  0
LINE
  5
3F1
330
3EC
100
AcDbEntity
  8
SLD-0
100
AcDbLine
 10
1416.9537841614
 20
1072.6138722516
 30
0.0
 11
1416.9537841614
 21
1104.6138722516
 31
0.0
  0
LINE
  5
3F2
330
3EC
100
AcDbEntity
  8
SLD-0
100
AcDbLine
 10
1196.9537841614
 20
1072.6138722516
 30
0.0
 11
1196.9537841614
 21
1104.6138722516
 31
0.0
  0
LINE
  5
3F3
330
3EC
100
AcDbEntity
  8
SLD-0
100
AcDbLine
 10
1416.9537841614
 20
1102.6138722516
 30
0.0
 11
1196.9537841614
 21
1102.6138722516
 31
0.0
  0
MTEXT
  5
3F4
330
3EC
100
AcDbEntity
  8
SLD-0
100
AcDbMText
 10
1265.6652588458
 20
1111.5552781524
 30
0.0
 40
7.0
 41
0.0
 46
0.0
 71
     1
 72
     1
  1
min. 90 / max. 
  7
SLDTEXTSTYLE1
 73
     1
 44
1.0
  0
MTEXT
  5
3F5
330
3EC
100
AcDbEntity
  8
SLD-0
100
AcDbMText
 10
1331.5235931487
 20
1111.5552781524
 30
0.0
 40
7.0
 41
0.0
 46
0.0
 71
     1
 72
     1
  1
220
  7
SLDTEXTSTYLE1
 73
     1
 44
1.0
  0
ENDBLK
  5
3EE
330
3EC
100
AcDbEntity
  8
0
100
AcDbBlockEnd
  0
BLOCK
  5
3F9
330
3F8
100
AcDbEntity
  8
0
100
AcDbBlockBegin
  2
_D_3
 70
     0
 10
0.0
 20
0.0
 30
0.0
  3
_D_3
  1

  0
SOLID
  5
3FB
330
3F8
100
AcDbEntity
  8
SLD-0
100
AcDbTrace
 10
1467.2928109959
 20
1070.6138722516
 30
0.0
 11
1468.3088109959
 21
1077.2178722516
 31
0.0
 12
1466.2768109959
 22
1077.2178722516
 32
0.0
 13
1466.2768109959
 23
1077.2178722516
 33
0.0
  0
SOLID
  5
3FC
330
3F8
100
AcDbEntity
  8
SLD-0
100
AcDbTrace
 10
1467.2928109959
 20
1054.6138722516
 30
0.0
 11
1466.2768109959
 21
1048.0098722516
 31
0.0
 12
1468.3088109959
 22
1048.0098722516
 32
0.0
 13
1468.3088109959
 23
1048.0098722516
 33
0.0
  0
LINE
  5
3FD
330
3F8
100
AcDbEntity
  8
SLD-0
100
AcDbLine
 10
1418.9537841614
 20
1070.6138722516
 30
0.0
 11
1469.2928109959
 21
1070.6138722516
 31
0.0
  0
LINE
  5
3FE
330
3F8
100
AcDbEntity
  8
SLD-0
100
AcDbLine
 10
1418.9537841614
 20
1054.6138722516
 30
0.0
 11
1469.2928109959
 21
1054.6138722516
 31
0.0
  0
LINE
  5
3FF
330
3F8
100
AcDbEntity
  8
SLD-0
100
AcDbLine
 10
1467.2928109959
 20
1070.6138722516
 30
0.0
 11
1467.2928109959
 21
1120.1770681507
 31
0.0
  0
LINE
  5
400
330
3F8
100
AcDbEntity
  8
SLD-0
100
AcDbLine
 10
1467.2928109959
 20
1070.6138722516
 30
0.0
 11
1467.2928109959
 21
1054.6138722516
 31
0.0
  0
LINE
  5
401
330
3F8
100
AcDbEntity
  8
SLD-0
100
AcDbLine
 10
1467.2928109959
 20
1054.6138722516
 30
0.0
 11
1467.2928109959
 21
1041.9138722516
 31
0.0
  0
MTEXT
  5
402
330
3F8
100
AcDbEntity
  8
SLD-0
100
AcDbMText
 10
1458.3514050952
 20
1085.0506763525
 30
0.0
 40
7.0
 41
0.0
 46
0.0
 71
     1
 72
     1
  1
max. 25
  7
SLDTEXTSTYLE1
 11
-7.044195017643634E-15
 21
1.0
 31
0.0
 73
     1
 44
1.0
  0
ENDBLK
  5
3FA
330
3F8
100
AcDbEntity
  8
0
100
AcDbBlockEnd
  0
BLOCK
  5
405
330
404
100
AcDbEntity
  8
0
100
AcDbBlockBegin
  2
_D_4
 70
     0
 10
0.0
 20
0.0
 30
0.0
  3
_D_4
  1

  0
SOLID
  5
407
330
404
100
AcDbEntity
  8
SLD-0
100
AcDbTrace
 10
1276.9537841614
 20
669.1138722516
 30
0.0
 11
1270.3497841614
 21
670.1298722516
 31
0.0
 12
1270.3497841614
 22
668.0978722516
 32
0.0
 13
1270.3497841614
 23
668.0978722516
 33
0.0
  0
SOLID
  5
408
330
404
100
AcDbEntity
  8
SLD-0
100
AcDbTrace
 10
1336.9537841614
 20
669.1138722516
 30
0.0
 11
1343.5577841614
 21
668.0978722516
 31
0.0
 12
1343.5577841614
 22
670.1298722516
 32
0.0
 13
1343.5577841614
 23
670.1298722516
 33
0.0
  0
LINE
  5
409
330
404
100
AcDbEntity
  8
SLD-0
100
AcDbLine
 10
1276.9537841614
 20
762.1138722516
 30
0.0
 11
1276.9537841614
 21
667.1138722516
 31
0.0
  0
LINE
  5
40A
330
404
100
AcDbEntity
  8
SLD-0
100
AcDbLine
 10
1336.9537841614
 20
762.1138722516
 30
0.0
 11
1336.9537841614
 21
667.1138722516
 31
0.0
  0
LINE
  5
40B
330
404
100
AcDbEntity
  8
SLD-0
100
AcDbLine
 10
1276.9537841614
 20
669.1138722516
 30
0.0
 11
1264.2537841614
 21
669.1138722516
 31
0.0
  0
LINE
  5
40C
330
404
100
AcDbEntity
  8
SLD-0
100
AcDbLine
 10
1276.9537841614
 20
669.1138722516
 30
0.0
 11
1336.9537841614
 21
669.1138722516
 31
0.0
  0
LINE
  5
40D
330
404
100
AcDbEntity
  8
SLD-0
100
AcDbLine
 10
1336.9537841614
 20
669.1138722516
 30
0.0
 11
1363.3436158938
 21
669.1138722516
 31
0.0
  0
MTEXT
  5
40E
330
404
100
AcDbEntity
  8
SLD-0
100
AcDbMText
 10
1352.9991711197
 20
678.0552781524
 30
0.0
 40
7.0
 41
0.0
 46
0.0
 71
     1
 72
     1
  1
60
  7
SLDTEXTSTYLE1
 73
     1
 44
1.0
  0
ENDBLK
  5
406
330
404
100
AcDbEntity
  8
0
100
AcDbBlockEnd
  0
BLOCK
  5
411
330
410
100
AcDbEntity
  8
0
100
AcDbBlockBegin
  2
_D_5
 70
     0
 10
0.0
 20
0.0
 30
0.0
  3
_D_5
  1

  0
SOLID
  5
413
330
410
100
AcDbEntity
  8
SLD-0
100
AcDbTrace
 10
1386.4884970768
 20
804.1138722516
 30
0.0
 11
1387.5044970768
 21
810.7178722516
 31
0.0
 12
1385.4724970768
 22
810.7178722516
 32
0.0
 13
1385.4724970768
 23
810.7178722516
 33
0.0
  0
SOLID
  5
414
330
410
100
AcDbEntity
  8
SLD-0
100
AcDbTrace
 10
1386.4884970768
 20
734.1138722516
 30
0.0
 11
1385.4724970768
 21
727.5098722516
 31
0.0
 12
1387.5044970768
 22
727.5098722516
 32
0.0
 13
1387.5044970768
 23
727.5098722516
 33
0.0
  0
LINE
  5
415
330
410
100
AcDbEntity
  8
SLD-0
100
AcDbLine
 10
1308.9537841614
 20
804.1138722516
 30
0.0
 11
1388.4884970768
 21
804.1138722516
 31
0.0
  0
LINE
  5
416
330
410
100
AcDbEntity
  8
SLD-0
100
AcDbLine
 10
1308.9537841614
 20
734.1138722516
 30
0.0
 11
1388.4884970768
 21
734.1138722516
 31
0.0
  0
LINE
  5
417
330
410
100
AcDbEntity
  8
SLD-0
100
AcDbLine
 10
1386.4884970768
 20
804.1138722516
 30
0.0
 11
1386.4884970768
 21
827.8109374932
 31
0.0
  0
LINE
  5
418
330
410
100
AcDbEntity
  8
SLD-0
100
AcDbLine
 10
1386.4884970768
 20
804.1138722516
 30
0.0
 11
1386.4884970768
 21
734.1138722516
 31
0.0
  0
LINE
  5
419
330
410
100
AcDbEntity
  8
SLD-0
100
AcDbLine
 10
1386.4884970768
 20
734.1138722516
 30
0.0
 11
1386.4884970768
 21
721.4138722516
 31
0.0
  0
MTEXT
  5
41A
330
410
100
AcDbEntity
  8
SLD-0
100
AcDbMText
 10
1377.547091176
 20
817.4664927191
 30
0.0
 40
7.0
 41
0.0
 46
0.0
 71
     1
 72
     1
  1
70
  7
SLDTEXTSTYLE1
 11
-7.044195017643634E-15
 21
1.0
 31
0.0
 73
     1
 44
1.0
  0
ENDBLK
  5
412
330
410
100
AcDbEntity
  8
0
100
AcDbBlockEnd
  0
BLOCK
  5
41D
330
41C
100
AcDbEntity
  8
0
100
AcDbBlockBegin
  2
_D_6
 70
     0
 10
0.0
 20
0.0
 30
0.0
  3
_D_6
  1

  0
SOLID
  5
41F
330
41C
100
AcDbEntity
  8
SLD-0
100
AcDbTrace
 10
1255.9965172909
 20
866.3643706672
 30
0.0
 11
1257.0466848707
 21
872.9630235642
 31
0.0
 12
1255.0147120887
 22
872.973540853
 32
0.0
 13
1255.0147120887
 23
872.973540853
 33
0.0
  0
SOLID
  5
420
330
41C
100
AcDbEntity
  8
SLD-0
100
AcDbTrace
 10
1256.6434961815
 20
991.3626963293
 30
0.0
 11
1255.5933286017
 21
984.7640434323
 31
0.0
 12
1257.6253013837
 22
984.7535261435
 32
0.0
 13
1257.6253013837
 23
984.7535261435
 33
0.0
  0
LINE
  5
421
330
41C
100
AcDbEntity
  8
SLD-0
100
AcDbLine
 10
1209.6302679267
 20
866.6043577583
 30
0.0
 11
1257.9964905015
 21
866.354019005
 31
0.0
  0
LINE
  5
422
330
41C
100
AcDbEntity
  8
SLD-0
100
AcDbLine
 10
1210.2772468172
 20
991.6026834204
 30
0.0
 11
1258.6434693921
 21
991.352344667
 31
0.0
  0
LINE
  5
423
330
41C
100
AcDbEntity
  8
SLD-0
100
AcDbLine
 10
1255.9965172909
 20
866.3643706672
 30
0.0
 11
1256.6434961815
 21
991.3626963293
 31
0.0
  0
MTEXT
  5
424
330
41C
100
AcDbEntity
  8
SLD-0
100
AcDbMText
 10
1247.3657480698
 20
926.4035466031
 30
0.0
 40
7.0
 41
0.0
 46
0.0
 71
     1
 72
     1
  1
%%c
  7
SLDTEXTSTYLE1
 11
0.005175831124276869
 21
0.9999866052963774
 31
0.0
 73
     1
 44
1.0
  0
MTEXT
  5
425
330
41C
100
AcDbEntity
  8
SLD-0
100
AcDbMText
 10
1247.3134457501
 20
936.9608335196
 30
0.0
 40
7.0
 41
0.0
 46
0.0
 71
     1
 72
     1
  1
125
  7
SLDTEXTSTYLE1
 11
0.005175831124276869
 21
0.9999866052963774
 31
0.0
 73
     1
 44
1.0
  0
ENDBLK
  5
41E
330
41C
100
AcDbEntity
  8
0
100
AcDbBlockEnd
  0
BLOCK
  5
428
330
427
100
AcDbEntity
  8
0
100
AcDbBlockBegin
  2
_D_7
 70
     0
 10
0.0
 20
0.0
 30
0.0
  3
_D_7
  1

  0
SOLID
  5
42A
330
427
100
AcDbEntity
  8
SLD-0
100
AcDbTrace
 10
1276.75144953
 20
1009.1138722516
 30
0.0
 11
1275.73544953
 21
1002.5098722516
 31
0.0
 12
1277.76744953
 22
1002.5098722516
 32
0.0
 13
1277.76744953
 23
1002.5098722516
 33
0.0
  0
SOLID
  5
42B
330
427
100
AcDbEntity
  8
SLD-0
100
AcDbTrace
 10
1276.75144953
 20
866.6138722516
 30
0.0
 11
1277.76744953
 21
873.2178722516
 31
0.0
 12
1275.73544953
 22
873.2178722516
 32
0.0
 13
1275.73544953
 23
873.2178722516
 33
0.0
  0
LINE
  5
42C
330
427
100
AcDbEntity
  8
SLD-0
100
AcDbLine
 10
1192.7005552739
 20
1009.1138722516
 30
0.0
 11
1278.75144953
 21
1009.1138722516
 31
0.0
  0
LINE
  5
42D
330
427
100
AcDbEntity
  8
SLD-0
100
AcDbLine
 10
1276.75144953
 20
1009.1138722516
 30
0.0
 11
1276.75144953
 21
866.6138722516
 31
0.0
  0
MTEXT
  5
42E
330
427
100
AcDbEntity
  8
SLD-0
100
AcDbMText
 10
1267.8100436292
 20
928.3409251755
 30
0.0
 40
7.0
 41
0.0
 46
0.0
 71
     1
 72
     1
  1
142,5
  7
SLDTEXTSTYLE1
 11
-9.708730276744010E-15
 21
1.0
 31
0.0
 73
     1
 44
1.0
  0
ENDBLK
  5
429
330
427
100
AcDbEntity
  8
0
100
AcDbBlockEnd
  0
BLOCK
  5
431
330
430
100
AcDbEntity
  8
0
100
AcDbBlockBegin
  2
_D_8
 70
     0
 10
0.0
 20
0.0
 30
0.0
  3
_D_8
  1

  0
SOLID
  5
433
330
430
100
AcDbEntity
  8
SLD-0
100
AcDbTrace
 10
1498.4537841614
 20
866.6138722516
 30
0.0
 11
1497.4377841614
 21
860.0098722516
 31
0.0
 12
1499.4697841614
 22
860.0098722516
 32
0.0
 13
1499.4697841614
 23
860.0098722516
 33
0.0
  0
SOLID
  5
434
330
430
100
AcDbEntity
  8
SLD-0
100
AcDbTrace
 10
1498.4537841614
 20
836.6138722516
 30
0.0
 11
1499.4697841614
 21
843.2178722516
 31
0.0
 12
1497.4377841614
 22
843.2178722516
 32
0.0
 13
1497.4377841614
 23
843.2178722516
 33
0.0
  0
LINE
  5
435
330
430
100
AcDbEntity
  8
SLD-0
100
AcDbLine
 10
1418.9537841614
 20
866.6138722516
 30
0.0
 11
1500.4537841614
 21
866.6138722516
 31
0.0
  0
LINE
  5
436
330
430
100
AcDbEntity
  8
SLD-0
100
AcDbLine
 10
1416.9537841614
 20
836.6138722516
 30
0.0
 11
1500.4537841614
 21
836.6138722516
 31
0.0
  0
LINE
  5
437
330
430
100
AcDbEntity
  8
SLD-0
100
AcDbLine
 10
1498.4537841614
 20
866.6138722516
 30
0.0
 11
1498.4537841614
 21
836.6138722516
 31
0.0
  0
MTEXT
  5
438
330
430
100
AcDbEntity
  8
SLD-0
100
AcDbMText
 10
1489.5123782606
 20
847.0224958223
 30
0.0
 40
7.0
 41
0.0
 46
0.0
 71
     1
 72
     1
  1
30
  7
SLDTEXTSTYLE1
 11
-7.044195017643634E-15
 21
1.0
 31
0.0
 73
     1
 44
1.0
  0
ENDBLK
  5
432
330
430
100
AcDbEntity
  8
0
100
AcDbBlockEnd
  0
BLOCK
  5
43B
330
43A
100
AcDbEntity
  8
0
100
AcDbBlockBegin
  2
_D_9
 70
     0
 10
0.0
 20
0.0
 30
0.0
  3
_D_9
  1

  0
SOLID
  5
43D
330
43A
100
AcDbEntity
  8
SLD-0
100
AcDbTrace
 10
1522.4537841614
 20
866.6138722516
 30
0.0
 11
1521.4377841614
 21
860.0098722516
 31
0.0
 12
1523.4697841614
 22
860.0098722516
 32
0.0
 13
1523.4697841614
 23
860.0098722516
 33
0.0
  0
SOLID
  5
43E
330
43A
100
AcDbEntity
  8
SLD-0
100
AcDbTrace
 10
1522.4537841614
 20
734.1138722516
 30
0.0
 11
1523.4697841614
 21
740.7178722516
 31
0.0
 12
1521.4377841614
 22
740.7178722516
 32
0.0
 13
1521.4377841614
 23
740.7178722516
 33
0.0
  0
LINE
  5
43F
330
43A
100
AcDbEntity
  8
SLD-0
100
AcDbLine
 10
1418.9537841614
 20
866.6138722516
 30
0.0
 11
1524.4537841614
 21
866.6138722516
 31
0.0
  0
LINE
  5
440
330
43A
100
AcDbEntity
  8
SLD-0
100
AcDbLine
 10
1308.9537841614
 20
734.1138722516
 30
0.0
 11
1524.4537841614
 21
734.1138722516
 31
0.0
  0
LINE
  5
441
330
43A
100
AcDbEntity
  8
SLD-0
100
AcDbLine
 10
1522.4537841614
 20
866.6138722516
 30
0.0
 11
1522.4537841614
 21
734.1138722516
 31
0.0
  0
MTEXT
  5
442
330
43A
100
AcDbEntity
  8
SLD-0
100
AcDbMText
 10
1513.5123782606
 20
790.9169095183
 30
0.0
 40
7.0
 41
0.0
 46
0.0
 71
     1
 72
     1
  1
132,5
  7
SLDTEXTSTYLE1
 11
-7.044195017643634E-15
 21
1.0
 31
0.0
 73
     1
 44
1.0
  0
ENDBLK
  5
43C
330
43A
100
AcDbEntity
  8
0
100
AcDbBlockEnd
  0
BLOCK
  5
445
330
444
100
AcDbEntity
  8
0
100
AcDbBlockBegin
  2
_D_10
 70
     0
 10
0.0
 20
0.0
 30
0.0
  3
_D_10
  1

  0
SOLID
  5
447
330
444
100
AcDbEntity
  8
SLD-0
100
AcDbTrace
 10
1306.9537841614
 20
645.1138722516
 30
0.0
 11
1313.5577841614
 21
644.0978722516
 31
0.0
 12
1313.5577841614
 22
646.1298722516
 32
0.0
 13
1313.5577841614
 23
646.1298722516
 33
0.0
  0
SOLID
  5
448
330
444
100
AcDbEntity
  8
SLD-0
100
AcDbTrace
 10
1474.4537841614
 20
645.1138722516
 30
0.0
 11
1467.8497841614
 21
646.1298722516
 31
0.0
 12
1467.8497841614
 22
644.0978722516
 32
0.0
 13
1467.8497841614
 23
644.0978722516
 33
0.0
  0
LINE
  5
449
330
444
100
AcDbEntity
  8
SLD-0
100
AcDbLine
 10
1306.9537841614
 20
691.4862472684
 30
0.0
 11
1306.9537841614
 21
643.1138722516
 31
0.0
  0
LINE
  5
44A
330
444
100
AcDbEntity
  8
SLD-0
100
AcDbLine
 10
1474.4537841614
 20
744.1138722516
 30
0.0
 11
1474.4537841614
 21
643.1138722516
 31
0.0
  0
LINE
  5
44B
330
444
100
AcDbEntity
  8
SLD-0
100
AcDbLine
 10
1306.9537841614
 20
645.1138722516
 30
0.0
 11
1474.4537841614
 21
645.1138722516
 31
0.0
  0
MTEXT
  5
44C
330
444
100
AcDbEntity
  8
SLD-0
100
AcDbMText
 10
1381.219017347
 20
654.0552781524
 30
0.0
 40
7.0
 41
0.0
 46
0.0
 71
     1
 72
     1
  1
167,5
  7
SLDTEXTSTYLE1
 73
     1
 44
1.0
  0
ENDBLK
  5
446
330
444
100
AcDbEntity
  8
0
100
AcDbBlockEnd
  0
BLOCK
  5
44F
330
44E
100
AcDbEntity
  8
0
100
AcDbBlockBegin
  2
_D_11
 70
     0
 10
0.0
 20
0.0
 30
0.0
  3
_D_11
  1

  0
SOLID
  5
451
330
44E
100
AcDbEntity
  8
SLD-0
100
AcDbTrace
 10
1181.9537841614
 20
1126.6138722516
 30
0.0
 11
1188.5577841614
 21
1125.5978722516
 31
0.0
 12
1188.5577841614
 22
1127.6298722516
 32
0.0
 13
1188.5577841614
 23
1127.6298722516
 33
0.0
  0
SOLID
  5
452
330
44E
100
AcDbEntity
  8
SLD-0
100
AcDbTrace
 10
1431.9537841614
 20
1126.6138722516
 30
0.0
 11
1425.3497841614
 21
1127.6298722516
 31
0.0
 12
1425.3497841614
 22
1125.5978722516
 32
0.0
 13
1425.3497841614
 23
1125.5978722516
 33
0.0
  0
LINE
  5
453
330
44E
100
AcDbEntity
  8
SLD-0
100
AcDbLine
 10
1181.9537841614
 20
986.1138722516
 30
0.0
 11
1181.9537841614
 21
1128.6138722516
 31
0.0
  0
LINE
  5
454
330
44E
100
AcDbEntity
  8
SLD-0
100
AcDbLine
 10
1431.9537841614
 20
986.1138722516
 30
0.0
 11
1431.9537841614
 21
1128.6138722516
 31
0.0
  0
LINE
  5
455
330
44E
100
AcDbEntity
  8
SLD-0
100
AcDbLine
 10
1181.9537841614
 20
1126.6138722516
 30
0.0
 11
1431.9537841614
 21
1126.6138722516
 31
0.0
  0
MTEXT
  5
456
330
44E
100
AcDbEntity
  8
SLD-0
100
AcDbMText
 10
1263.0791474194
 20
1135.5552781524
 30
0.0
 40
7.0
 41
0.0
 46
0.0
 71
     1
 72
     1
  1
min. 120 / max. 
  7
SLDTEXTSTYLE1
 73
     1
 44
1.0
  0
MTEXT
  5
457
330
44E
100
AcDbEntity
  8
SLD-0
100
AcDbMText
 10
1334.1097045751
 20
1135.5552781524
 30
0.0
 40
7.0
 41
0.0
 46
0.0
 71
     1
 72
     1
  1
250
  7
SLDTEXTSTYLE1
 73
     1
 44
1.0
  0
ENDBLK
  5
450
330
44E
100
AcDbEntity
  8
0
100
AcDbBlockEnd
  0
BLOCK
  5
467
330
466
100
AcDbEntity
  8
0
100
AcDbBlockBegin
  2
SW_CENTERMARKSYMBOL_7
 70
     0
 10
0.0
 20
0.0
 30
0.0
  3
SW_CENTERMARKSYMBOL_7
  1

  0
LINE
  5
469
330
466
100
AcDbEntity
  8
SLD-0
 62
     0
100
AcDbLine
 10
0.0
 20
0.0
 30
0.0
 11
0.0
 21
2.5
 31
0.0
  0
LINE
  5
46A
330
466
100
AcDbEntity
  8
SLD-0
 62
     0
100
AcDbLine
 10
0.0
 20
0.0
 30
0.0
 11
-2.5
 21
0.0
 31
0.0
  0
LINE
  5
46B
330
466
100
AcDbEntity
  8
SLD-0
 62
     0
100
AcDbLine
 10
0.0
 20
0.0
 30
0.0
 11
0.0
 21
-2.5
 31
0.0
  0
LINE
  5
46C
330
466
100
AcDbEntity
  8
SLD-0
 62
     0
100
AcDbLine
 10
0.0
 20
0.0
 30
0.0
 11
2.5
 21
0.0
 31
0.0
  0
LINE
  5
46D
330
466
100
AcDbEntity
  8
SLD-0
 62
     0
100
AcDbLine
 10
0.0
 20
5.0
 30
0.0
 11
0.0
 21
8.0
 31
0.0
  0
LINE
  5
46E
330
466
100
AcDbEntity
  8
SLD-0
 62
     0
100
AcDbLine
 10
-5.0
 20
0.0
 30
0.0
 11
-8.0
 21
0.0
 31
0.0
  0
LINE
  5
46F
330
466
100
AcDbEntity
  8
SLD-0
 62
     0
100
AcDbLine
 10
0.0
 20
-5.0
 30
0.0
 11
0.0
 21
-8.0
 31
0.0
  0
LINE
  5
470
330
466
100
AcDbEntity
  8
SLD-0
 62
     0
100
AcDbLine
 10
5.0
 20
0.0
 30
0.0
 11
8.0
 21
0.0
 31
0.0
  0
ENDBLK
  5
468
330
466
100
AcDbEntity
  8
0
100
AcDbBlockEnd
  0
BLOCK
  5
599
330
598
100
AcDbEntity
  8
0
100
AcDbBlockBegin
  2
_D_12
 70
     0
 10
0.0
 20
0.0
 30
0.0
  3
_D_12
  1

  0
SOLID
  5
59B
330
598
100
AcDbEntity
  8
SLD-0
100
AcDbTrace
 10
382.439238656
 20
332.6942329186
 30
0.0
 11
375.835238656
 21
333.7102329186
 31
0.0
 12
375.835238656
 22
331.6782329186
 32
0.0
 13
375.835238656
 23
331.6782329186
 33
0.0
  0
SOLID
  5
59C
330
598
100
AcDbEntity
  8
SLD-0
100
AcDbTrace
 10
415.439238656
 20
332.6942329186
 30
0.0
 11
422.043238656
 21
331.6782329186
 31
0.0
 12
422.043238656
 22
333.7102329186
 32
0.0
 13
422.043238656
 23
333.7102329186
 33
0.0
  0
LINE
  5
59D
330
598
100
AcDbEntity
  8
SLD-0
100
AcDbLine
 10
382.439238656
 20
332.6942329186
 30
0.0
 11
369.739238656
 21
332.6942329186
 31
0.0
  0
LINE
  5
59E
330
598
100
AcDbEntity
  8
SLD-0
100
AcDbLine
 10
382.439238656
 20
332.6942329186
 30
0.0
 11
415.439238656
 21
332.6942329186
 31
0.0
  0
LINE
  5
59F
330
598
100
AcDbEntity
  8
SLD-0
100
AcDbLine
 10
415.439238656
 20
332.6942329186
 30
0.0
 11
439.7941029649
 21
332.6942329186
 31
0.0
  0
MTEXT
  5
5A0
330
598
100
AcDbEntity
  8
SLD-0
100
AcDbMText
 10
429.4496581908
 20
341.6356388194
 30
0.0
 40
7.0
 41
0.0
 46
0.0
 71
     1
 72
     1
  1
33
  7
SLDTEXTSTYLE1
 73
     1
 44
1.0
  0
ENDBLK
  5
59A
330
598
100
AcDbEntity
  8
0
100
AcDbBlockEnd
  0
ENDSEC
  0
SECTION
  2
ENTITIES
  0
LINE
  5
B6
330
1F
100
AcDbEntity
  8
FORMAT
100
AcDbLine
 10
1672.0
 20
1178.0
 30
0.0
 11
10.0
 21
1178.0
 31
0.0
  0
LINE
  5
B7
330
1F
100
AcDbEntity
  8
FORMAT
100
AcDbLine
 10
10.0
 20
10.0
 30
0.0
 11
1672.0
 21
10.0
 31
0.0
  0
LINE
  5
B8
330
1F
100
AcDbEntity
  8
FORMAT
100
AcDbLine
 10
1662.0
 20
1168.0
 30
0.0
 11
20.0
 21
1168.0
 31
0.0
  0
LINE
  5
B9
330
1F
100
AcDbEntity
  8
FORMAT
100
AcDbLine
 10
20.0
 20
20.0
 30
0.0
 11
1662.0
 21
20.0
 31
0.0
  0
LINE
  5
BA
330
1F
100
AcDbEntity
  8
FORMAT
100
AcDbLine
 10
1672.0
 20
10.0
 30
0.0
 11
1672.0
 21
1178.0
 31
0.0
  0
LINE
  5
BB
330
1F
100
AcDbEntity
  8
FORMAT
100
AcDbLine
 10
1662.0
 20
20.0
 30
0.0
 11
1662.0
 21
1168.0
 31
0.0
  0
LINE
  5
BC
330
1F
100
AcDbEntity
  8
FORMAT
100
AcDbLine
 10
941.0
 20
1168.0
 30
0.0
 11
941.0
 21
1178.0
 31
0.0
  0
LINE
  5
BD
330
1F
100
AcDbEntity
  8
FORMAT
100
AcDbLine
 10
1041.0
 20
1178.0
 30
0.0
 11
1041.0
 21
1168.0
 31
0.0
  0
LINE
  5
BE
330
1F
100
AcDbEntity
  8
FORMAT
100
AcDbLine
 10
1141.0
 20
1168.0
 30
0.0
 11
1141.0
 21
1178.0
 31
0.0
  0
LINE
  5
BF
330
1F
100
AcDbEntity
  8
FORMAT
100
AcDbLine
 10
1241.0
 20
1178.0
 30
0.0
 11
1241.0
 21
1168.0
 31
0.0
  0
LINE
  5
C0
330
1F
100
AcDbEntity
  8
FORMAT
100
AcDbLine
 10
1341.0
 20
1168.0
 30
0.0
 11
1341.0
 21
1178.0
 31
0.0
  0
LINE
  5
C1
330
1F
100
AcDbEntity
  8
FORMAT
100
AcDbLine
 10
1441.0
 20
1178.0
 30
0.0
 11
1441.0
 21
1168.0
 31
0.0
  0
LINE
  5
C2
330
1F
100
AcDbEntity
  8
FORMAT
100
AcDbLine
 10
1541.0
 20
1168.0
 30
0.0
 11
1541.0
 21
1178.0
 31
0.0
  0
LINE
  5
C3
330
1F
100
AcDbEntity
  8
FORMAT
100
AcDbLine
 10
10.0
 20
1178.0
 30
0.0
 11
10.0
 21
10.0
 31
0.0
  0
LINE
  5
C4
330
1F
100
AcDbEntity
  8
FORMAT
100
AcDbLine
 10
20.0
 20
1168.0
 30
0.0
 11
20.0
 21
20.0
 31
0.0
  0
LINE
  5
C5
330
1F
100
AcDbEntity
  8
FORMAT
100
AcDbLine
 10
20.0
 20
94.0
 30
0.0
 11
10.0
 21
94.0
 31
0.0
  0
LINE
  5
C6
330
1F
100
AcDbEntity
  8
FORMAT
100
AcDbLine
 10
10.0
 20
194.0
 30
0.0
 11
20.0
 21
194.0
 31
0.0
  0
LINE
  5
C7
330
1F
100
AcDbEntity
  8
FORMAT
100
AcDbLine
 10
20.0
 20
294.0
 30
0.0
 11
10.0
 21
294.0
 31
0.0
  0
LINE
  5
C8
330
1F
100
AcDbEntity
  8
FORMAT
100
AcDbLine
 10
10.0
 20
394.0
 30
0.0
 11
20.0
 21
394.0
 31
0.0
  0
LINE
  5
C9
330
1F
100
AcDbEntity
  8
FORMAT
100
AcDbLine
 10
20.0
 20
494.0
 30
0.0
 11
10.0
 21
494.0
 31
0.0
  0
LINE
  5
CA
330
1F
100
AcDbEntity
  8
FORMAT
100
AcDbLine
 10
20.0
 20
694.0
 30
0.0
 11
10.0
 21
694.0
 31
0.0
  0
LINE
  5
CB
330
1F
100
AcDbEntity
  8
FORMAT
100
AcDbLine
 10
10.0
 20
794.0
 30
0.0
 11
20.0
 21
794.0
 31
0.0
  0
LINE
  5
CC
330
1F
100
AcDbEntity
  8
FORMAT
100
AcDbLine
 10
20.0
 20
894.0
 30
0.0
 11
10.0
 21
894.0
 31
0.0
  0
LINE
  5
CD
330
1F
100
AcDbEntity
  8
FORMAT
100
AcDbLine
 10
10.0
 20
994.0
 30
0.0
 11
20.0
 21
994.0
 31
0.0
  0
LINE
  5
CE
330
1F
100
AcDbEntity
  8
FORMAT
100
AcDbLine
 10
20.0
 20
1094.0
 30
0.0
 11
10.0
 21
1094.0
 31
0.0
  0
LINE
  5
CF
330
1F
100
AcDbEntity
  8
FORMAT
100
AcDbLine
 10
141.0
 20
1168.0
 30
0.0
 11
141.0
 21
1178.0
 31
0.0
  0
LINE
  5
D0
330
1F
100
AcDbEntity
  8
FORMAT
100
AcDbLine
 10
241.0
 20
1178.0
 30
0.0
 11
241.0
 21
1168.0
 31
0.0
  0
LINE
  5
D1
330
1F
100
AcDbEntity
  8
FORMAT
100
AcDbLine
 10
341.0
 20
1168.0
 30
0.0
 11
341.0
 21
1178.0
 31
0.0
  0
LINE
  5
D2
330
1F
100
AcDbEntity
  8
FORMAT
100
AcDbLine
 10
441.0
 20
1178.0
 30
0.0
 11
441.0
 21
1168.0
 31
0.0
  0
LINE
  5
D3
330
1F
100
AcDbEntity
  8
FORMAT
100
AcDbLine
 10
541.0
 20
1168.0
 30
0.0
 11
541.0
 21
1178.0
 31
0.0
  0
LINE
  5
D4
330
1F
100
AcDbEntity
  8
FORMAT
100
AcDbLine
 10
641.0
 20
1178.0
 30
0.0
 11
641.0
 21
1168.0
 31
0.0
  0
LINE
  5
D5
330
1F
100
AcDbEntity
  8
FORMAT
100
AcDbLine
 10
741.0
 20
1168.0
 30
0.0
 11
741.0
 21
1178.0
 31
0.0
  0
LINE
  5
D6
330
1F
100
AcDbEntity
  8
FORMAT
100
AcDbLine
 10
841.0
 20
1178.0
 30
0.0
 11
841.0
 21
1168.0
 31
0.0
  0
LINE
  5
D7
330
1F
100
AcDbEntity
  8
FORMAT
100
AcDbLine
 10
10.0
 20
594.0
 30
0.0
 11
20.0
 21
594.0
 31
0.0
  0
LINE
  5
D8
330
1F
100
AcDbEntity
  8
FORMAT
100
AcDbLine
 10
841.0
 20
10.0
 30
0.0
 11
841.0
 21
20.0
 31
0.0
  0
LINE
  5
D9
330
1F
100
AcDbEntity
  8
FORMAT
100
AcDbLine
 10
1672.0
 20
594.0
 30
0.0
 11
1662.0
 21
594.0
 31
0.0
  0
LINE
  5
DA
330
1F
100
AcDbEntity
  8
FORMAT
100
AcDbLine
 10
941.0
 20
10.0
 30
0.0
 11
941.0
 21
20.0
 31
0.0
  0
LINE
  5
DB
330
1F
100
AcDbEntity
  8
FORMAT
100
AcDbLine
 10
1041.0
 20
20.0
 30
0.0
 11
1041.0
 21
10.0
 31
0.0
  0
LINE
  5
DC
330
1F
100
AcDbEntity
  8
FORMAT
100
AcDbLine
 10
141.0
 20
10.0
 30
0.0
 11
141.0
 21
20.0
 31
0.0
  0
LINE
  5
DD
330
1F
100
AcDbEntity
  8
FORMAT
100
AcDbLine
 10
241.0
 20
20.0
 30
0.0
 11
241.0
 21
10.0
 31
0.0
  0
LINE
  5
DE
330
1F
100
AcDbEntity
  8
FORMAT
100
AcDbLine
 10
341.0
 20
10.0
 30
0.0
 11
341.0
 21
20.0
 31
0.0
  0
LINE
  5
DF
330
1F
100
AcDbEntity
  8
FORMAT
100
AcDbLine
 10
441.0
 20
20.0
 30
0.0
 11
441.0
 21
10.0
 31
0.0
  0
LINE
  5
E0
330
1F
100
AcDbEntity
  8
FORMAT
100
AcDbLine
 10
541.0
 20
10.0
 30
0.0
 11
541.0
 21
20.0
 31
0.0
  0
LINE
  5
E1
330
1F
100
AcDbEntity
  8
FORMAT
100
AcDbLine
 10
641.0
 20
20.0
 30
0.0
 11
641.0
 21
10.0
 31
0.0
  0
LINE
  5
E2
330
1F
100
AcDbEntity
  8
FORMAT
100
AcDbLine
 10
741.0
 20
10.0
 30
0.0
 11
741.0
 21
20.0
 31
0.0
  0
LINE
  5
E3
330
1F
100
AcDbEntity
  8
FORMAT
100
AcDbLine
 10
1655.5788549311
 20
36.0665609236
 30
0.0
 11
1644.5590372995
 21
22.8646011868
 31
0.0
  0
LINE
  5
E4
330
1F
100
AcDbEntity
  8
FORMAT
100
AcDbLine
 10
1470.0
 20
45.5
 30
0.0
 11
1662.0
 21
45.5
 31
0.0
  0
LINE
  5
E5
330
1F
100
AcDbEntity
  8
FORMAT
100
AcDbLine
 10
1662.0
 20
194.0
 30
0.0
 11
1672.0
 21
194.0
 31
0.0
  0
LINE
  5
E6
330
1F
100
AcDbEntity
  8
FORMAT
100
AcDbLine
 10
1672.0
 20
294.0
 30
0.0
 11
1662.0
 21
294.0
 31
0.0
  0
LINE
  5
E7
330
1F
100
AcDbEntity
  8
FORMAT
100
AcDbLine
 10
1662.0
 20
394.0
 30
0.0
 11
1672.0
 21
394.0
 31
0.0
  0
LINE
  5
E8
330
1F
100
AcDbEntity
  8
FORMAT
100
AcDbLine
 10
1672.0
 20
494.0
 30
0.0
 11
1662.0
 21
494.0
 31
0.0
  0
LINE
  5
E9
330
1F
100
AcDbEntity
  8
FORMAT
100
AcDbLine
 10
1672.0
 20
694.0
 30
0.0
 11
1662.0
 21
694.0
 31
0.0
  0
LINE
  5
EA
330
1F
100
AcDbEntity
  8
FORMAT
100
AcDbLine
 10
1662.0
 20
794.0
 30
0.0
 11
1672.0
 21
794.0
 31
0.0
  0
LINE
  5
EB
330
1F
100
AcDbEntity
  8
FORMAT
100
AcDbLine
 10
1672.0
 20
894.0
 30
0.0
 11
1662.0
 21
894.0
 31
0.0
  0
LINE
  5
EC
330
1F
100
AcDbEntity
  8
FORMAT
100
AcDbLine
 10
1662.0
 20
994.0
 30
0.0
 11
1672.0
 21
994.0
 31
0.0
  0
LINE
  5
ED
330
1F
100
AcDbEntity
  8
FORMAT
100
AcDbLine
 10
1672.0
 20
1094.0
 30
0.0
 11
1662.0
 21
1094.0
 31
0.0
  0
LINE
  5
EE
330
1F
100
AcDbEntity
  8
FORMAT
  6
CENTERX2
370
     0
100
AcDbLine
 10
1446.9247019356
 20
112.1789923883
 30
0.0
 11
1465.9247019356
 21
112.1789923883
 31
0.0
  0
LINE
  5
EF
330
1F
100
AcDbEntity
  8
FORMAT
370
    15
100
AcDbLine
 10
1362.0
 20
135.5
 30
0.0
 11
1662.0
 21
135.5
 31
0.0
  0
LINE
  5
F0
330
1F
100
AcDbEntity
  8
FORMAT
100
AcDbLine
 10
1662.0
 20
96.5
 30
0.0
 11
1470.0
 21
96.5
 31
0.0
  0
LINE
  5
F1
330
1F
100
AcDbEntity
  8
FORMAT
100
AcDbLine
 10
1496.0
 20
45.5
 30
0.0
 11
1496.0
 21
20.0
 31
0.0
  0
LINE
  5
F2
330
1F
100
AcDbEntity
  8
FORMAT
370
    15
100
AcDbLine
 10
1362.0
 20
20.0
 30
0.0
 11
1362.0
 21
135.5
 31
0.0
  0
LINE
  5
F3
330
1F
100
AcDbEntity
  8
FORMAT
  6
CENTERX2
370
     0
100
AcDbLine
 10
1456.4247019356
 20
121.6789923883
 30
0.0
 11
1456.4247019356
 21
102.6789923883
 31
0.0
  0
LINE
  5
F4
330
1F
100
AcDbEntity
  8
FORMAT
100
AcDbLine
 10
1450.0
 20
45.5
 30
0.0
 11
1450.0
 21
71.0
 31
0.0
  0
LINE
  5
F5
330
1F
100
AcDbEntity
  8
FORMAT
100
AcDbLine
 10
1470.0
 20
28.5
 30
0.0
 11
1362.0
 21
28.5
 31
0.0
  0
LINE
  5
F6
330
1F
100
AcDbEntity
  8
FORMAT
370
    15
100
AcDbLine
 10
1470.0
 20
135.5
 30
0.0
 11
1470.0
 21
20.0
 31
0.0
  0
LINE
  5
F7
330
1F
100
AcDbEntity
  8
FORMAT
100
AcDbLine
 10
1416.0
 20
20.0
 30
0.0
 11
1416.0
 21
71.0
 31
0.0
  0
LINE
  5
F8
330
1F
100
AcDbEntity
  8
FORMAT
370
    15
100
AcDbLine
 10
1439.6675241429
 20
120.1940489791
 30
0.0
 11
1439.6675241429
 21
104.1940489792
 31
0.0
  0
LINE
  5
F9
330
1F
100
AcDbEntity
  8
FORMAT
100
AcDbLine
 10
1638.0
 20
20.0
 30
0.0
 11
1638.0
 21
45.5
 31
0.0
  0
LINE
  5
FA
330
1F
100
AcDbEntity
  8
FORMAT
100
AcDbLine
 10
1470.0
 20
96.5
 30
0.0
 11
1362.0
 21
96.5
 31
0.0
  0
LINE
  5
FB
330
1F
100
AcDbEntity
  8
FORMAT
370
    15
100
AcDbLine
 10
1421.6675241429
 20
116.6940489791
 30
0.0
 11
1421.6675241429
 21
107.6940489792
 31
0.0
  0
LINE
  5
FC
330
1F
100
AcDbEntity
  8
FORMAT
370
    15
100
AcDbLine
 10
1421.6675241429
 20
116.6940489791
 30
0.0
 11
1439.6675241429
 21
120.1940489791
 31
0.0
  0
LINE
  5
FD
330
1F
100
AcDbEntity
  8
FORMAT
100
AcDbLine
 10
1416.0
 20
96.5
 30
0.0
 11
1416.0
 21
135.5
 31
0.0
  0
LINE
  5
FE
330
1F
100
AcDbEntity
  8
FORMAT
100
AcDbLine
 10
1470.0
 20
37.0
 30
0.0
 11
1362.0
 21
37.0
 31
0.0
  0
LINE
  5
FF
330
1F
100
AcDbEntity
  8
FORMAT
100
AcDbLine
 10
1470.0
 20
45.5
 30
0.0
 11
1362.0
 21
45.5
 31
0.0
  0
LINE
  5
100
330
1F
100
AcDbEntity
  8
FORMAT
100
AcDbLine
 10
1470.0
 20
54.0
 30
0.0
 11
1362.0
 21
54.0
 31
0.0
  0
LINE
  5
101
330
1F
100
AcDbEntity
  8
FORMAT
100
AcDbLine
 10
1470.0
 20
62.5
 30
0.0
 11
1362.0
 21
62.5
 31
0.0
  0
LINE
  5
102
330
1F
100
AcDbEntity
  8
FORMAT
100
AcDbLine
 10
1470.0
 20
71.0
 30
0.0
 11
1362.0
 21
71.0
 31
0.0
  0
LINE
  5
103
330
1F
100
AcDbEntity
  8
FORMAT
100
AcDbLine
 10
1416.0
 20
122.5
 30
0.0
 11
1470.0
 21
122.5
 31
0.0
  0
LINE
  5
104
330
1F
100
AcDbEntity
  8
FORMAT
370
    15
100
AcDbLine
 10
1421.6675241429
 20
107.6940489792
 30
0.0
 11
1439.6675241429
 21
104.1940489792
 31
0.0
  0
LINE
  5
105
330
1F
100
AcDbEntity
  8
FORMAT
  6
CENTER
370
     0
100
AcDbLine
 10
1441.6675241429
 20
112.1789923883
 30
0.0
 11
1419.6675241429
 21
112.1789923883
 31
0.0
  0
LINE
  5
106
330
1F
100
AcDbEntity
  8
FORMAT
100
AcDbLine
 10
1154.0
 20
28.5
 30
0.0
 11
1362.0
 21
28.5
 31
0.0
  0
LINE
  5
107
330
1F
100
AcDbEntity
  8
FORMAT
100
AcDbLine
 10
1154.0
 20
45.5
 30
0.0
 11
1362.0
 21
45.5
 31
0.0
  0
LINE
  5
108
330
1F
100
AcDbEntity
  8
FORMAT
100
AcDbLine
 10
1154.0
 20
54.0
 30
0.0
 11
1362.0
 21
54.0
 31
0.0
  0
LINE
  5
109
330
1F
100
AcDbEntity
  8
FORMAT
100
AcDbLine
 10
1154.0
 20
37.0
 30
0.0
 11
1362.0
 21
37.0
 31
0.0
  0
LINE
  5
10A
330
1F
100
AcDbEntity
  8
FORMAT
100
AcDbLine
 10
1203.5933302163
 20
54.0
 30
0.0
 11
1203.5933302163
 21
20.0
 31
0.0
  0
LINE
  5
10B
330
1F
100
AcDbEntity
  8
FORMAT
100
AcDbLine
 10
1308.0
 20
20.0
 30
0.0
 11
1308.0
 21
54.0
 31
0.0
  0
LINE
  5
10C
330
1F
100
AcDbEntity
  8
FORMAT
100
AcDbLine
 10
1342.0
 20
20.0
 30
0.0
 11
1342.0
 21
54.0
 31
0.0
  0
LINE
  5
10D
330
1F
100
AcDbEntity
  8
FORMAT
100
AcDbLine
 10
1187.5933302163
 20
54.0
 30
0.0
 11
1187.5933302163
 21
20.0
 31
0.0
  0
LINE
  5
10E
330
1F
100
AcDbEntity
  8
FORMAT
100
AcDbLine
 10
1154.0
 20
54.0
 30
0.0
 11
1154.0
 21
20.0
 31
0.0
  0
CIRCLE
  5
10F
330
1F
100
AcDbEntity
  8
FORMAT
370
    15
100
AcDbCircle
 10
1456.4247019356
 20
112.1789923883
 30
0.0
 40
7.9999999999995
  0
CIRCLE
  5
110
330
1F
100
AcDbEntity
  8
FORMAT
370
    15
100
AcDbCircle
 10
1456.4247019356
 20
112.1789923883
 30
0.0
 40
4.499999999999919
  0
INSERT
  5
111
330
1F
100
AcDbEntity
  8
0
  6
Continuous
 62
     7
100
AcDbBlockReference
  2
CMCO Logo & Text
 10
1470.0
 20
96.5
 30
0.0
  0
MTEXT
  5
112
330
1F
100
AcDbEntity
  8
FORMAT
100
AcDbMText
 10
13.3333333333
 20
646.292621195
 30
0.0
 40
3.7041666667
 41
0.0
 46
0.0
 71
     1
 72
     1
  1
F
  7
SLDTEXTSTYLE1
 73
     1
 44
1.0
  0
MTEXT
  5
113
330
1F
100
AcDbEntity
  8
FORMAT
100
AcDbMText
 10
788.0208333333
 20
1175.292635195
 30
0.0
 40
3.7041666667
 41
0.0
 46
0.0
 71
     1
 72
     1
  1
8
  7
SLDTEXTSTYLE1
 73
     1
 44
1.0
  0
MTEXT
  5
114
330
1F
100
AcDbEntity
  8
FORMAT
100
AcDbMText
 10
13.3333333333
 20
746.292621195
 30
0.0
 40
3.7041666667
 41
0.0
 46
0.0
 71
     1
 72
     1
  1
E
  7
SLDTEXTSTYLE1
 73
     1
 44
1.0
  0
MTEXT
  5
115
330
1F
100
AcDbEntity
  8
FORMAT
100
AcDbMText
 10
13.3333333333
 20
846.292621195
 30
0.0
 40
3.7041666667
 41
0.0
 46
0.0
 71
     1
 72
     1
  1
D
  7
SLDTEXTSTYLE1
 73
     1
 44
1.0
  0
MTEXT
  5
116
330
1F
100
AcDbEntity
  8
FORMAT
100
AcDbMText
 10
13.3333333333
 20
946.292621195
 30
0.0
 40
3.7041666667
 41
0.0
 46
0.0
 71
     1
 72
     1
  1
C
  7
SLDTEXTSTYLE1
 73
     1
 44
1.0
  0
MTEXT
  5
117
330
1F
100
AcDbEntity
  8
FORMAT
100
AcDbMText
 10
13.3333333333
 20
1046.292621195
 30
0.0
 40
3.7041666667
 41
0.0
 46
0.0
 71
     1
 72
     1
  1
B
  7
SLDTEXTSTYLE1
 73
     1
 44
1.0
  0
MTEXT
  5
118
330
1F
100
AcDbEntity
  8
FORMAT
100
AcDbMText
 10
13.3333333333
 20
1141.3024355574
 30
0.0
 40
3.7041666667
 41
0.0
 46
0.0
 71
     1
 72
     1
  1
A
  7
SLDTEXTSTYLE1
 73
     1
 44
1.0
  0
MTEXT
  5
119
330
1F
100
AcDbEntity
  8
FORMAT
100
AcDbMText
 10
13.3333333333
 20
546.292621195
 30
0.0
 40
3.7041666667
 41
0.0
 46
0.0
 71
     1
 72
     1
  1
G
  7
SLDTEXTSTYLE1
 73
     1
 44
1.0
  0
MTEXT
  5
11A
330
1F
100
AcDbEntity
  8
FORMAT
100
AcDbMText
 10
13.3333333333
 20
446.292621195
 30
0.0
 40
3.7041666667
 41
0.0
 46
0.0
 71
     1
 72
     1
  1
H
  7
SLDTEXTSTYLE1
 73
     1
 44
1.0
  0
MTEXT
  5
11B
330
1F
100
AcDbEntity
  8
FORMAT
100
AcDbMText
 10
13.3333333333
 20
246.292621195
 30
0.0
 40
3.7041666667
 41
0.0
 46
0.0
 71
     1
 72
     1
  1
K
  7
SLDTEXTSTYLE1
 73
     1
 44
1.0
  0
MTEXT
  5
11C
330
1F
100
AcDbEntity
  8
FORMAT
100
AcDbMText
 10
13.3333333333
 20
146.292621195
 30
0.0
 40
3.7041666667
 41
0.0
 46
0.0
 71
     1
 72
     1
  1
L
  7
SLDTEXTSTYLE1
 73
     1
 44
1.0
  0
MTEXT
  5
11D
330
1F
100
AcDbEntity
  8
FORMAT
100
AcDbMText
 10
12.3550493453
 20
52.0737695154
 30
0.0
 40
3.7041666667
 41
0.0
 46
0.0
 71
     1
 72
     1
  1
M
  7
SLDTEXTSTYLE1
 73
     1
 44
1.0
  0
MTEXT
  5
11E
330
1F
100
AcDbEntity
  8
FORMAT
100
AcDbMText
 10
688.0208333333
 20
1175.292635195
 30
0.0
 40
3.7041666667
 41
0.0
 46
0.0
 71
     1
 72
     1
  1
7
  7
SLDTEXTSTYLE1
 73
     1
 44
1.0
  0
MTEXT
  5
11F
330
1F
100
AcDbEntity
  8
FORMAT
100
AcDbMText
 10
588.0208333333
 20
1175.292635195
 30
0.0
 40
3.7041666667
 41
0.0
 46
0.0
 71
     1
 72
     1
  1
6
  7
SLDTEXTSTYLE1
 73
     1
 44
1.0
  0
MTEXT
  5
120
330
1F
100
AcDbEntity
  8
FORMAT
100
AcDbMText
 10
488.0208333333
 20
1175.292635195
 30
0.0
 40
3.7041666667
 41
0.0
 46
0.0
 71
     1
 72
     1
  1
5
  7
SLDTEXTSTYLE1
 73
     1
 44
1.0
  0
MTEXT
  5
121
330
1F
100
AcDbEntity
  8
FORMAT
100
AcDbMText
 10
388.0208333333
 20
1175.292635195
 30
0.0
 40
3.7041666667
 41
0.0
 46
0.0
 71
     1
 72
     1
  1
4
  7
SLDTEXTSTYLE1
 73
     1
 44
1.0
  0
MTEXT
  5
122
330
1F
100
AcDbEntity
  8
FORMAT
100
AcDbMText
 10
288.0208333333
 20
1175.292635195
 30
0.0
 40
3.7041666667
 41
0.0
 46
0.0
 71
     1
 72
     1
  1
3
  7
SLDTEXTSTYLE1
 73
     1
 44
1.0
  0
MTEXT
  5
123
330
1F
100
AcDbEntity
  8
FORMAT
100
AcDbMText
 10
188.0208333333
 20
1175.292635195
 30
0.0
 40
3.7041666667
 41
0.0
 46
0.0
 71
     1
 72
     1
  1
2
  7
SLDTEXTSTYLE1
 73
     1
 44
1.0
  0
MTEXT
  5
124
330
1F
100
AcDbEntity
  8
FORMAT
100
AcDbMText
 10
72.3648576033
 20
1175.5095997879
 30
0.0
 40
3.7041666667
 41
0.0
 46
0.0
 71
     1
 72
     1
  1
1
  7
SLDTEXTSTYLE1
 73
     1
 44
1.0
  0
MTEXT
  5
125
330
1F
100
AcDbEntity
  8
FORMAT
100
AcDbMText
 10
888.0208333333
 20
1175.292635195
 30
0.0
 40
3.7041666667
 41
0.0
 46
0.0
 71
     1
 72
     1
  1
9
  7
SLDTEXTSTYLE1
 73
     1
 44
1.0
  0
MTEXT
  5
126
330
1F
100
AcDbEntity
  8
FORMAT
100
AcDbMText
 10
986.7708333333
 20
1175.292635195
 30
0.0
 40
3.7041666667
 41
0.0
 46
0.0
 71
     1
 72
     1
  1
10
  7
SLDTEXTSTYLE1
 73
     1
 44
1.0
  0
MTEXT
  5
127
330
1F
100
AcDbEntity
  8
FORMAT
100
AcDbMText
 10
1087.1875
 20
1175.292635195
 30
0.0
 40
3.7041666667
 41
0.0
 46
0.0
 71
     1
 72
     1
  1
11
  7
SLDTEXTSTYLE1
 73
     1
 44
1.0
  0
MTEXT
  5
128
330
1F
100
AcDbEntity
  8
FORMAT
100
AcDbMText
 10
1186.3541666667
 20
1175.292635195
 30
0.0
 40
3.7041666667
 41
0.0
 46
0.0
 71
     1
 72
     1
  1
12
  7
SLDTEXTSTYLE1
 73
     1
 44
1.0
  0
MTEXT
  5
129
330
1F
100
AcDbEntity
  8
FORMAT
100
AcDbMText
 10
1286.3541666667
 20
1175.292635195
 30
0.0
 40
3.7041666667
 41
0.0
 46
0.0
 71
     1
 72
     1
  1
13
  7
SLDTEXTSTYLE1
 73
     1
 44
1.0
  0
MTEXT
  5
12A
330
1F
100
AcDbEntity
  8
FORMAT
100
AcDbMText
 10
1386.3541666667
 20
1175.292635195
 30
0.0
 40
3.7041666667
 41
0.0
 46
0.0
 71
     1
 72
     1
  1
14
  7
SLDTEXTSTYLE1
 73
     1
 44
1.0
  0
MTEXT
  5
12B
330
1F
100
AcDbEntity
  8
FORMAT
100
AcDbMText
 10
1486.3541666667
 20
1175.292635195
 30
0.0
 40
3.7041666667
 41
0.0
 46
0.0
 71
     1
 72
     1
  1
15
  7
SLDTEXTSTYLE1
 73
     1
 44
1.0
  0
MTEXT
  5
12C
330
1F
100
AcDbEntity
  8
FORMAT
100
AcDbMText
 10
1604.458304351
 20
1175.292635195
 30
0.0
 40
3.7041666667
 41
0.0
 46
0.0
 71
     1
 72
     1
  1
16
  7
SLDTEXTSTYLE1
 73
     1
 44
1.0
  0
MTEXT
  5
12D
330
1F
100
AcDbEntity
  8
FORMAT
100
AcDbMText
 10
888.0208333333
 20
17.292635195
 30
0.0
 40
3.7041666667
 41
0.0
 46
0.0
 71
     1
 72
     1
  1
9
  7
SLDTEXTSTYLE1
 73
     1
 44
1.0
  0
MTEXT
  5
12E
330
1F
100
AcDbEntity
  8
FORMAT
100
AcDbMText
 10
69.6798005011
 20
16.9013215998
 30
0.0
 40
3.7041666667
 41
0.0
 46
0.0
 71
     1
 72
     1
  1
1
  7
SLDTEXTSTYLE1
 73
     1
 44
1.0
  0
MTEXT
  5
12F
330
1F
100
AcDbEntity
  8
FORMAT
100
AcDbMText
 10
188.0208333333
 20
17.292635195
 30
0.0
 40
3.7041666667
 41
0.0
 46
0.0
 71
     1
 72
     1
  1
2
  7
SLDTEXTSTYLE1
 73
     1
 44
1.0
  0
MTEXT
  5
130
330
1F
100
AcDbEntity
  8
FORMAT
100
AcDbMText
 10
288.0208333333
 20
17.292635195
 30
0.0
 40
3.7041666667
 41
0.0
 46
0.0
 71
     1
 72
     1
  1
3
  7
SLDTEXTSTYLE1
 73
     1
 44
1.0
  0
MTEXT
  5
131
330
1F
100
AcDbEntity
  8
FORMAT
100
AcDbMText
 10
388.0208333333
 20
17.292635195
 30
0.0
 40
3.7041666667
 41
0.0
 46
0.0
 71
     1
 72
     1
  1
4
  7
SLDTEXTSTYLE1
 73
     1
 44
1.0
  0
MTEXT
  5
132
330
1F
100
AcDbEntity
  8
FORMAT
100
AcDbMText
 10
488.0208333333
 20
17.292635195
 30
0.0
 40
3.7041666667
 41
0.0
 46
0.0
 71
     1
 72
     1
  1
5
  7
SLDTEXTSTYLE1
 73
     1
 44
1.0
  0
MTEXT
  5
133
330
1F
100
AcDbEntity
  8
FORMAT
100
AcDbMText
 10
588.0208333333
 20
17.292635195
 30
0.0
 40
3.7041666667
 41
0.0
 46
0.0
 71
     1
 72
     1
  1
6
  7
SLDTEXTSTYLE1
 73
     1
 44
1.0
  0
MTEXT
  5
134
330
1F
100
AcDbEntity
  8
FORMAT
100
AcDbMText
 10
688.0208333333
 20
17.292635195
 30
0.0
 40
3.7041666667
 41
0.0
 46
0.0
 71
     1
 72
     1
  1
7
  7
SLDTEXTSTYLE1
 73
     1
 44
1.0
  0
MTEXT
  5
135
330
1F
100
AcDbEntity
  8
FORMAT
100
AcDbMText
 10
788.0208333333
 20
17.292635195
 30
0.0
 40
3.7041666667
 41
0.0
 46
0.0
 71
     1
 72
     1
  1
8
  7
SLDTEXTSTYLE1
 73
     1
 44
1.0
  0
MTEXT
  5
136
330
1F
100
AcDbEntity
  8
FORMAT
100
AcDbMText
 10
986.7708333333
 20
17.292635195
 30
0.0
 40
3.7041666667
 41
0.0
 46
0.0
 71
     1
 72
     1
  1
10
  7
SLDTEXTSTYLE1
 73
     1
 44
1.0
  0
MTEXT
  5
137
330
1F
100
AcDbEntity
  8
FORMAT
100
AcDbMText
 10
1087.1875
 20
17.292635195
 30
0.0
 40
3.7041666667
 41
0.0
 46
0.0
 71
     1
 72
     1
  1
11
  7
SLDTEXTSTYLE1
 73
     1
 44
1.0
  0
MTEXT
  5
138
330
1F
100
AcDbEntity
  8
FORMAT
100
AcDbMText
 10
1665.3333033333
 20
246.292621195
 30
0.0
 40
3.7041666667
 41
0.0
 46
0.0
 71
     1
 72
     1
  1
K
  7
SLDTEXTSTYLE1
 73
     1
 44
1.0
  0
MTEXT
  5
139
330
1F
100
AcDbEntity
  8
FORMAT
100
AcDbMText
 10
1665.3333033333
 20
546.292621195
 30
0.0
 40
3.7041666667
 41
0.0
 46
0.0
 71
     1
 72
     1
  1
G
  7
SLDTEXTSTYLE1
 73
     1
 44
1.0
  0
MTEXT
  5
13A
330
1F
100
AcDbEntity
  8
FORMAT
100
AcDbMText
 10
1665.3333033333
 20
1146.292621195
 30
0.0
 40
3.7041666667
 41
0.0
 46
0.0
 71
     1
 72
     1
  1
A
  7
SLDTEXTSTYLE1
 73
     1
 44
1.0
  0
MTEXT
  5
13B
330
1F
100
AcDbEntity
  8
FORMAT
100
AcDbMText
 10
1665.3333033333
 20
1046.292621195
 30
0.0
 40
3.7041666667
 41
0.0
 46
0.0
 71
     1
 72
     1
  1
B
  7
SLDTEXTSTYLE1
 73
     1
 44
1.0
  0
MTEXT
  5
13C
330
1F
100
AcDbEntity
  8
FORMAT
100
AcDbMText
 10
1665.3333033333
 20
946.292621195
 30
0.0
 40
3.7041666667
 41
0.0
 46
0.0
 71
     1
 72
     1
  1
C
  7
SLDTEXTSTYLE1
 73
     1
 44
1.0
  0
MTEXT
  5
13D
330
1F
100
AcDbEntity
  8
FORMAT
100
AcDbMText
 10
1665.3333033333
 20
846.292621195
 30
0.0
 40
3.7041666667
 41
0.0
 46
0.0
 71
     1
 72
     1
  1
D
  7
SLDTEXTSTYLE1
 73
     1
 44
1.0
  0
MTEXT
  5
13E
330
1F
100
AcDbEntity
  8
FORMAT
100
AcDbMText
 10
1665.3333033333
 20
746.292621195
 30
0.0
 40
3.7041666667
 41
0.0
 46
0.0
 71
     1
 72
     1
  1
E
  7
SLDTEXTSTYLE1
 73
     1
 44
1.0
  0
MTEXT
  5
13F
330
1F
100
AcDbEntity
  8
FORMAT
100
AcDbMText
 10
1665.3333033333
 20
646.292621195
 30
0.0
 40
3.7041666667
 41
0.0
 46
0.0
 71
     1
 72
     1
  1
F
  7
SLDTEXTSTYLE1
 73
     1
 44
1.0
  0
MTEXT
  5
140
330
1F
100
AcDbEntity
  8
FORMAT
100
AcDbMText
 10
1665.3333033333
 20
446.292621195
 30
0.0
 40
3.7041666667
 41
0.0
 46
0.0
 71
     1
 72
     1
  1
H
  7
SLDTEXTSTYLE1
 73
     1
 44
1.0
  0
MTEXT
  5
141
330
1F
100
AcDbEntity
  8
FORMAT
100
AcDbMText
 10
1665.3333033333
 20
346.292621195
 30
0.0
 40
3.7041666667
 41
0.0
 46
0.0
 71
     1
 72
     1
  1
J
  7
SLDTEXTSTYLE1
 73
     1
 44
1.0
  0
MTEXT
  5
142
330
1F
100
AcDbEntity
  8
FORMAT
100
AcDbMText
 10
13.3333333333
 20
346.292621195
 30
0.0
 40
3.7041666667
 41
0.0
 46
0.0
 71
     1
 72
     1
  1
J
  7
SLDTEXTSTYLE1
 73
     1
 44
1.0
  0
MTEXT
  5
143
330
1F
100
AcDbEntity
  8
FORMAT
100
AcDbMText
 10
22.0955765173
 20
21.4649187659
 30
0.0
 40
4.7625
 41
0.0
 46
0.0
 71
     1
 72
     1
  1
NOTICE TO PERSONS RECEIVING THIS DRAWING AND/OR TECHNICAL INFORMATION
  7
SLDTEXTSTYLE1
 11
-3.269436733918102E-15
 21
1.0
 31
0.0
 73
     1
 44
1.0
  0
INSERT
  5
14B
330
1F
100
AcDbEntity
  8
FORMAT
100
AcDbBlockReference
  2
SW_NOTE_1
 10
34.5251182832
 20
21.741499035
 30
0.0
  0
INSERT
  5
152
330
1F
100
AcDbEntity
  8
FORMAT
100
AcDbBlockReference
  2
SW_NOTE_2
 10
22.9840813449
 20
1156.5610362314
 30
0.0
  0
MTEXT
  5
153
330
1F
100
AcDbEntity
  8
FORMAT
100
AcDbMText
 10
1343.7412713754
 20
26.1902173153
 30
0.0
 40
4.0
 41
0.0
 46
0.0
 71
     1
 72
     1
  1
By
  7
SLDTEXTSTYLE1
 73
     1
 44
1.0
  0
MTEXT
  5
154
330
1F
100
AcDbEntity
  8
FORMAT
100
AcDbMText
 10
1310.183474847
 20
26.1902173153
 30
0.0
 40
4.0
 41
0.0
 46
0.0
 71
     1
 72
     1
  1
Date
  7
SLDTEXTSTYLE1
 73
     1
 44
1.0
  0
MTEXT
  5
155
330
1F
100
AcDbEntity
  8
FORMAT
100
AcDbMText
 10
1205.771133247
 20
26.1902173153
 30
0.0
 40
4.0
 41
0.0
 46
0.0
 71
     1
 72
     1
  1
Description of change
  7
SLDTEXTSTYLE1
 73
     1
 44
1.0
  0
MTEXT
  5
156
330
1F
100
AcDbEntity
  8
FORMAT
100
AcDbMText
 10
1155.6377609788
 20
26.1902173153
 30
0.0
 40
4.0
 41
0.0
 46
0.0
 71
     1
 72
     1
  1
ECN
  7
SLDTEXTSTYLE1
 73
     1
 44
1.0
  0
MTEXT
  5
157
330
1F
100
AcDbEntity
  8
FORMAT
100
AcDbMText
 10
1343.6377609788
 20
34.7516862916
 30
0.0
 40
4.0
 41
0.0
 46
0.0
 71
     1
 72
     1
  1
-
  7
SLDTEXTSTYLE1
 73
     1
 44
1.0
  0
MTEXT
  5
158
330
1F
100
AcDbEntity
  8
FORMAT
100
AcDbMText
 10
1343.6377609788
 20
43.2132136724
 30
0.0
 40
4.0
 41
0.0
 46
0.0
 71
     1
 72
     1
  1
-
  7
SLDTEXTSTYLE1
 73
     1
 44
1.0
  0
MTEXT
  5
159
330
1F
100
AcDbEntity
  8
FORMAT
100
AcDbMText
 10
1343.7316760485
 20
51.7462595089
 30
0.0
 40
4.0
 41
0.0
 46
0.0
 71
     1
 72
     1
  1
CNHWU
  7
SLDTEXTSTYLE1
 73
     1
 44
1.0
  0
MTEXT
  5
15A
330
1F
100
AcDbEntity
  8
FORMAT
100
AcDbMText
 10
1205.2310911951
 20
34.7516862916
 30
0.0
 40
4.0
 41
0.0
 46
0.0
 71
     1
 72
     1
  1
-
  7
SLDTEXTSTYLE1
 73
     1
 44
1.0
  0
MTEXT
  5
15B
330
1F
100
AcDbEntity
  8
FORMAT
100
AcDbMText
 10
1205.2310911951
 20
43.2132136724
 30
0.0
 40
4.0
 41
0.0
 46
0.0
 71
     1
 72
     1
  1
-
  7
SLDTEXTSTYLE1
 73
     1
 44
1.0
  0
MTEXT
  5
15C
330
1F
100
AcDbEntity
  8
FORMAT
100
AcDbMText
 10
1205.3250062649
 20
51.7462595089
 30
0.0
 40
4.0
 41
0.0
 46
0.0
 71
     1
 72
     1
  1
new
  7
SLDTEXTSTYLE1
 73
     1
 44
1.0
  0
MTEXT
  5
15D
330
1F
100
AcDbEntity
  8
FORMAT
100
AcDbMText
 10
1155.7316760485
 20
51.7462595089
 30
0.0
 40
4.0
 41
0.0
 46
0.0
 71
     1
 72
     1
  1
-
  7
SLDTEXTSTYLE1
 73
     1
 44
1.0
  0
MTEXT
  5
15E
330
1F
100
AcDbEntity
  8
FORMAT
100
AcDbMText
 10
1155.6377609788
 20
43.2132136724
 30
0.0
 40
4.0
 41
0.0
 46
0.0
 71
     1
 72
     1
  1
-
  7
SLDTEXTSTYLE1
 73
     1
 44
1.0
  0
MTEXT
  5
15F
330
1F
100
AcDbEntity
  8
FORMAT
100
AcDbMText
 10
1189.8214162628
 20
51.7462595089
 30
0.0
 40
4.0
 41
0.0
 46
0.0
 71
     1
 72
     1
  1
AA
  7
SLDTEXTSTYLE1
 73
     1
 44
1.0
  0
MTEXT
  5
160
330
1F
100
AcDbEntity
  8
FORMAT
100
AcDbMText
 10
1310.1880432885
 20
51.7326561951
 30
0.0
 40
4.0
 41
0.0
 46
0.0
 71
     1
 72
     1
  1
27.09.2016
  7
SLDTEXTSTYLE1
 73
     1
 44
1.0
  0
MTEXT
  5
161
330
1F
100
AcDbEntity
  8
FORMAT
100
AcDbMText
 10
1155.6377609788
 20
34.7516862916
 30
0.0
 40
4.0
 41
0.0
 46
0.0
 71
     1
 72
     1
  1
-
  7
SLDTEXTSTYLE1
 73
     1
 44
1.0
  0
MTEXT
  5
162
330
1F
100
AcDbEntity
  8
FORMAT
100
AcDbMText
 10
1189.8412337131
 20
34.609073319
 30
0.0
 40
4.0
 41
0.0
 46
0.0
 71
     1
 72
     1
  1
-
  7
SLDTEXTSTYLE1
 73
     1
 44
1.0
  0
MTEXT
  5
163
330
1F
100
AcDbEntity
  8
FORMAT
100
AcDbMText
 10
1189.8412337131
 20
43.1419071861
 30
0.0
 40
4.0
 41
0.0
 46
0.0
 71
     1
 72
     1
  1
-
  7
SLDTEXTSTYLE1
 73
     1
 44
1.0
  0
MTEXT
  5
164
330
1F
100
AcDbEntity
  8
FORMAT
100
AcDbMText
 10
1189.8412337131
 20
26.1902173153
 30
0.0
 40
4.0
 41
0.0
 46
0.0
 71
     1
 72
     1
  1
Rev.
  7
SLDTEXTSTYLE1
 73
     1
 44
1.0
  0
INSERT
  5
16A
330
1F
100
AcDbEntity
  8
SLD-0
100
AcDbBlockReference
  2
SW_NOTE_3
 10
1368.6822897754
 20
103.8910793606
 30
0.0
  0
INSERT
  5
170
330
1F
100
AcDbEntity
  8
SLD-0
100
AcDbBlockReference
  2
SW_NOTE_4
 10
1367.8797206841
 20
115.8639293199
 30
0.0
  0
MTEXT
  5
171
330
1F
100
AcDbEntity
  8
SLD-0
100
AcDbMText
 10
1364.8295511896
 20
78.1363852739
 30
0.0
 40
4.0
 41
0.0
 46
0.0
 71
     1
 72
     1
  1
Material No:
  7
SLDTEXTSTYLE1
 73
     1
 44
1.0
  0
MTEXT
  5
172
330
1F
100
AcDbEntity
  8
SLD-0
100
AcDbMText
 10
1364.8295511896
 20
86.6363852739
 30
0.0
 40
4.0
 41
0.0
 46
0.0
 71
     1
 72
     1
  1
Standard:
  7
SLDTEXTSTYLE1
 73
     1
 44
1.0
  0
MTEXT
  5
173
330
1F
100
AcDbEntity
  8
SLD-0
100
AcDbMText
 10
1418.1880432885
 20
51.7326561951
 30
0.0
 40
4.0
 41
0.0
 46
0.0
 71
     1
 72
     1
  1
10.01.2015
  7
SLDTEXTSTYLE1
 73
     1
 44
1.0
  0
MTEXT
  5
174
330
1F
100
AcDbEntity
  8
SLD-0
100
AcDbMText
 10
1451.8321539387
 20
51.7326561951
 30
0.0
 40
4.0
 41
0.0
 46
0.0
 71
     1
 72
     1
  1
CNHWU
  7
SLDTEXTSTYLE1
 73
     1
 44
1.0
  0
MTEXT
  5
175
330
1F
100
AcDbEntity
  8
FORMAT
100
AcDbMText
 10
1499.4347719724
 20
36.5234201451
 30
0.0
 40
12.1708333333
 41
0.0
 46
0.0
 71
     1
 72
     1
  1
05141277
  7
SLDTEXTSTYLE0
 73
     1
 44
1.0
  0
MTEXT
  5
176
330
1F
100
AcDbEntity
  8
FORMAT
100
AcDbMText
 10
1473.9548597369
 20
86.7759013647
 30
0.0
 40
6.4
 41
0.0
 46
0.0
 71
     1
 72
     1
  1
Rollfahrwerk
  7
SLDTEXTSTYLE0
 73
     1
 44
1.0
  0
MTEXT
  5
177
330
1F
100
AcDbEntity
  8
FORMAT
100
AcDbMText
 10
1473.9548597369
 20
76.6106288998
 30
0.0
 40
6.4
 41
0.0
 46
0.0
 71
     1
 72
     1
  1
push trolley
  7
SLDTEXTSTYLE1
 73
     1
 44
1.0
  0
MTEXT
  5
178
330
1F
100
AcDbEntity
  8
FORMAT
100
AcDbMText
 10
1473.9548597369
 20
66.4578218715
 30
0.0
 40
6.4
 41
0.0
 46
0.0
 71
     1
 72
     1
  1
HTP-A 5,0t   
  7
SLDTEXTSTYLE1
 73
     1
 44
1.0
  0
MTEXT
  5
179
330
1F
100
AcDbEntity
  8
FORMAT
100
AcDbMText
 10
1451.8321539387
 20
68.7326561951
 30
0.0
 40
4.0
 41
0.0
 46
0.0
 71
     1
 72
     1
  1
CNHWU
  7
SLDTEXTSTYLE1
 73
     1
 44
1.0
  0
MTEXT
  5
17A
330
1F
100
AcDbEntity
  8
FORMAT
100
AcDbMText
 10
1451.8321539387
 20
60.2326561951
 30
0.0
 40
4.0
 41
0.0
 46
0.0
 71
     1
 72
     1
  1
CNHWU
  7
SLDTEXTSTYLE1
 73
     1
 44
1.0
  0
MTEXT
  5
17B
330
1F
100
AcDbEntity
  8
FORMAT
100
AcDbMText
 10
1418.1880432885
 20
43.2326561951
 30
0.0
 40
4.0
 41
0.0
 46
0.0
 71
     1
 72
     1
  1
Velbert
  7
SLDTEXTSTYLE1
 73
     1
 44
1.0
  0
MTEXT
  5
17C
330
1F
100
AcDbEntity
  8
FORMAT
100
AcDbMText
 10
1418.1880432885
 20
60.2326561951
 30
0.0
 40
4.0
 41
0.0
 46
0.0
 71
     1
 72
     1
  1
10.01.2015
  7
SLDTEXTSTYLE1
 73
     1
 44
1.0
  0
MTEXT
  5
17D
330
1F
100
AcDbEntity
  8
FORMAT
100
AcDbMText
 10
1418.1880432885
 20
68.7326561951
 30
0.0
 40
4.0
 41
0.0
 46
0.0
 71
     1
 72
     1
  1
10.01.2015
  7
SLDTEXTSTYLE1
 73
     1
 44
1.0
  0
MTEXT
  5
17E
330
1F
100
AcDbEntity
  8
FORMAT
100
AcDbMText
 10
1483.002295076
 20
34.7116227013
 30
0.0
 40
10.5833333333
 41
0.0
 46
0.0
 71
     2
 72
     1
  1
A1
  7
SLDTEXTSTYLE0
 73
     1
 44
1.0
  0
MTEXT
  5
17F
330
1F
100
AcDbEntity
  8
FORMAT
100
AcDbMText
 10
1473.7928153107
 20
43.505793482
 30
0.0
 40
4.0
 41
0.0
 46
0.0
 71
     1
 72
     1
  1
Format
  7
SLDTEXTSTYLE1
 73
     1
 44
1.0
  0
INSERT
  5
185
330
1F
100
AcDbEntity
  8
FORMAT
100
AcDbBlockReference
  2
SW_NOTE_5
 10
1641.1825493238
 20
29.2390425327
 30
0.0
  0
MTEXT
  5
186
330
1F
100
AcDbEntity
  8
FORMAT
100
AcDbMText
 10
1642.00787933
 20
43.5190160191
 30
0.0
 40
4.0
 41
0.0
 46
0.0
 71
     1
 72
     1
  1
Sheet
  7
SLDTEXTSTYLE1
 73
     1
 44
1.0
  0
MTEXT
  5
187
330
1F
100
AcDbEntity
  8
FORMAT
100
AcDbMText
 10
1499.5276597134
 20
43.505793482
 30
0.0
 40
4.0
 41
0.0
 46
0.0
 71
     1
 72
     1
  1
Number:
  7
SLDTEXTSTYLE1
 73
     1
 44
1.0
  0
MTEXT
  5
188
330
1F
100
AcDbEntity
  8
FORMAT
100
AcDbMText
 10
1473.9072429926
 20
95.1363852739
 30
0.0
 40
4.0
 41
0.0
 46
0.0
 71
     1
 72
     1
  1
Description:
  7
SLDTEXTSTYLE1
 73
     1
 44
1.0
  0
MTEXT
  5
189
330
1F
100
AcDbEntity
  8
FORMAT
100
AcDbMText
 10
1442.4322174244
 20
128.7187108608
 30
0.0
 40
3.7041666667
 41
0.0
 46
0.0
 71
     2
 72
     1
  1
mm
  7
SLDTEXTSTYLE1
 73
     1
 44
1.0
  0
MTEXT
  5
18A
330
1F
100
AcDbEntity
  8
FORMAT
100
AcDbMText
 10
1422.4060606024
 20
133.0019336774
 30
0.0
 40
3.7041666667
 41
0.0
 46
0.0
 71
     1
 72
     1
  1
Dimensional Units
  7
SLDTEXTSTYLE1
 73
     1
 44
1.0
  0
INSERT
  5
190
330
1F
100
AcDbEntity
  8
FORMAT
100
AcDbBlockReference
  2
SW_NOTE_6
 10
1369.0644654445
 20
128.3763601526
 30
0.0
  0
MTEXT
  5
191
330
1F
100
AcDbEntity
  8
FORMAT
100
AcDbMText
 10
1364.8295511896
 20
95.1363852739
 30
0.0
 40
4.0
 41
0.0
 46
0.0
 71
     1
 72
     1
  1
Material:
  7
SLDTEXTSTYLE1
 73
     1
 44
1.0
  0
MTEXT
  5
192
330
1F
100
AcDbEntity
  8
FORMAT
100
AcDbMText
 10
1440.0688819929
 20
26.5804203828
 30
0.0
 40
4.0
 41
0.0
 46
0.0
 71
     1
 72
     1
  1
1:2
  7
SLDTEXTSTYLE1
 73
     1
 44
1.0
  0
MTEXT
  5
193
330
1F
100
AcDbEntity
  8
FORMAT
100
AcDbMText
 10
1364.8052498061
 20
26.5709303489
 30
0.0
 40
4.0
 41
0.0
 46
0.0
 71
     1
 72
     1
  1
Original scale:
  7
SLDTEXTSTYLE1
 73
     1
 44
1.0
  0
MTEXT
  5
194
330
1F
100
AcDbEntity
  8
FORMAT
100
AcDbMText
 10
1364.9093095922
 20
35.014414597
 30
0.0
 40
4.0
 41
0.0
 46
0.0
 71
     1
 72
     1
  1
Original project:
  7
SLDTEXTSTYLE1
 73
     1
 44
1.0
  0
MTEXT
  5
195
330
1F
100
AcDbEntity
  8
FORMAT
100
AcDbMText
 10
1364.7649904114
 20
43.5057691038
 30
0.0
 40
4.0
 41
0.0
 46
0.0
 71
     1
 72
     1
  1
Design Authority:
  7
SLDTEXTSTYLE1
 73
     1
 44
1.0
  0
MTEXT
  5
196
330
1F
100
AcDbEntity
  8
FORMAT
100
AcDbMText
 10
1364.7462542402
 20
51.9813020732
 30
0.0
 40
4.0
 41
0.0
 46
0.0
 71
     1
 72
     1
  1
Approved:
  7
SLDTEXTSTYLE1
 73
     1
 44
1.0
  0
MTEXT
  5
197
330
1F
100
AcDbEntity
  8
FORMAT
100
AcDbMText
 10
1364.8028252966
 20
60.4713293695
 30
0.0
 40
4.0
 41
0.0
 46
0.0
 71
     1
 72
     1
  1
Drawn:
  7
SLDTEXTSTYLE1
 73
     1
 44
1.0
  0
MTEXT
  5
198
330
1F
100
AcDbEntity
  8
FORMAT
100
AcDbMText
 10
1364.8972294761
 20
68.944311535
 30
0.0
 40
4.0
 41
0.0
 46
0.0
 71
     1
 72
     1
  1
Modeled:
  7
SLDTEXTSTYLE1
 73
     1
 44
1.0
  0
MTEXT
  5
199
330
1F
100
AcDbEntity
  8
FORMAT
100
AcDbMText
 10
1442.7002430699
 20
102.3090397662
 30
0.0
 40
3.7041666667
 41
0.0
 46
0.0
 71
     2
 72
     1
  1
First Angle Projection
  7
SLDTEXTSTYLE1
 73
     1
 44
1.0
  0
INSERT
  5
1DD
330
1F
100
AcDbEntity
  8
SLD-0
100
AcDbBlockReference
  2
SW_TABLEANNOTATION_0
 10
1364.3806180599
 20
289.5
 30
0.0
  0
ARC
  5
1DE
330
1F
100
AcDbEntity
  8
0
  6
Continuous
 62
     7
370
    40
100
AcDbCircle
 10
398.939238656
 20
717.6138722516
 30
0.0
 40
16.50000000000003
100
AcDbArc
 50
205.4921730399
 51
334.5078269601
  0
CIRCLE
  5
1DF
330
1F
100
AcDbEntity
  8
0
  6
Continuous
 62
     7
370
    40
100
AcDbCircle
 10
432.439238656
 20
919.1138722516
 30
0.0
 40
2.600000000000023
  0
CIRCLE
  5
1E0
330
1F
100
AcDbEntity
  8
0
  6
Continuous
 62
     7
370
    40
100
AcDbCircle
 10
365.439238656
 20
919.1138722516
 30
0.0
 40
2.599999999999966
  0
CIRCLE
  5
1E1
330
1F
100
AcDbEntity
  8
0
  6
Continuous
 62
     7
370
    40
100
AcDbCircle
 10
432.439238656
 20
872.1138722516
 30
0.0
 40
2.600000000000023
  0
CIRCLE
  5
1E2
330
1F
100
AcDbEntity
  8
0
  6
Continuous
 62
     7
370
    40
100
AcDbCircle
 10
365.439238656
 20
872.1138722516
 30
0.0
 40
2.599999999999966
  0
LINE
  5
1E3
330
1F
100
AcDbEntity
  8
0
  6
Continuous
 62
     7
370
    40
100
AcDbLine
 10
436.439238656
 20
923.1138722516
 30
0.0
 11
361.439238656
 21
923.1138722516
 31
0.0
  0
LINE
  5
1E4
330
1F
100
AcDbEntity
  8
0
  6
Continuous
 62
     7
370
    40
100
AcDbLine
 10
436.439238656
 20
868.1138722516
 30
0.0
 11
436.439238656
 21
923.1138722516
 31
0.0
  0
LINE
  5
1E5
330
1F
100
AcDbEntity
  8
0
  6
Continuous
 62
     7
370
    40
100
AcDbLine
 10
361.439238656
 20
868.1138722516
 30
0.0
 11
436.439238656
 21
868.1138722516
 31
0.0
  0
LINE
  5
1E6
330
1F
100
AcDbEntity
  8
0
  6
Continuous
 62
     7
370
    40
100
AcDbLine
 10
361.439238656
 20
923.1138722516
 30
0.0
 11
361.439238656
 21
868.1138722516
 31
0.0
  0
ARC
  5
1E7
330
1F
100
AcDbEntity
  8
0
  6
Continuous
 62
     7
370
    40
100
AcDbCircle
 10
294.439238656
 20
929.1138722516
 30
0.0
 40
79.69999999999999
100
AcDbArc
 50
43.6370617245
 51
167.6841962294
  0
ARC
  5
1E8
330
1F
100
AcDbEntity
  8
0
  6
Continuous
 62
     7
370
    40
100
AcDbCircle
 10
294.439238656
 20
929.1138722516
 30
0.0
 40
80.00000000000003
100
AcDbArc
 50
43.4325365578
 51
167.731101004
  0
ARC
  5
1E9
330
1F
100
AcDbEntity
  8
0
  6
Continuous
 62
     7
370
    40
100
AcDbCircle
 10
503.439238656
 20
929.1138722516
 30
0.0
 40
79.70000000000002
100
AcDbArc
 50
12.3158037706
 51
136.3629382755
  0
ARC
  5
1EA
330
1F
100
AcDbEntity
  8
0
  6
Continuous
 62
     7
370
    40
100
AcDbCircle
 10
503.439238656
 20
929.1138722516
 30
0.0
 40
80.0
100
AcDbArc
 50
12.268898996
 51
136.5674634422
  0
CIRCLE
  5
1EB
330
1F
100
AcDbEntity
  8
0
  6
Continuous
 62
     7
370
    40
100
AcDbCircle
 10
398.939238656
 20
769.1138722516
 30
0.0
 40
23.00000000000011
  0
CIRCLE
  5
1EC
330
1F
100
AcDbEntity
  8
0
  6
Continuous
 62
     7
370
    40
100
AcDbCircle
 10
398.939238656
 20
769.1138722516
 30
0.0
 40
5.100000000000023
  0
CIRCLE
  5
1ED
330
1F
100
AcDbEntity
  8
0
  6
Continuous
 62
     7
370
    40
100
AcDbCircle
 10
398.939238656
 20
769.1138722516
 30
0.0
 40
26.00000000000011
  0
CIRCLE
  5
1EE
330
1F
100
AcDbEntity
  8
0
  6
Continuous
 62
     7
370
    40
100
AcDbCircle
 10
398.939238656
 20
769.1138722516
 30
0.0
 40
40.5
  0
CIRCLE
  5
1EF
330
1F
100
AcDbEntity
  8
0
  6
Continuous
 62
     7
370
    40
100
AcDbCircle
 10
398.939238656
 20
769.1138722516
 30
0.0
 40
28.18800000000005
  0
CIRCLE
  5
1F0
330
1F
100
AcDbEntity
  8
0
  6
Continuous
 62
     7
370
    40
100
AcDbCircle
 10
398.939238656
 20
769.1138722516
 30
0.0
 40
42.49999999999994
  0
CIRCLE
  5
1F1
330
1F
100
AcDbEntity
  8
0
  6
Continuous
 62
     7
370
    40
100
AcDbCircle
 10
294.439238656
 20
929.1138722516
 30
0.0
 40
22.0
  0
CIRCLE
  5
1F2
330
1F
100
AcDbEntity
  8
0
  6
Continuous
 62
     7
370
    40
100
AcDbCircle
 10
503.439238656
 20
929.1138722516
 30
0.0
 40
22.00000000000006
  0
LINE
  5
1F3
330
1F
100
AcDbEntity
  8
0
  6
Continuous
 62
     7
370
    40
100
AcDbLine
 10
173.939238656
 20
873.9246889457
 30
0.0
 11
173.939238656
 21
946.1138722516
 31
0.0
  0
LINE
  5
1F4
330
1F
100
AcDbEntity
  8
0
  6
Continuous
 62
     7
370
    40
100
AcDbLine
 10
213.939238656
 20
946.1138722516
 30
0.0
 11
173.939238656
 21
946.1138722516
 31
0.0
  0
LINE
  5
1F5
330
1F
100
AcDbEntity
  8
0
  6
Continuous
 62
     7
370
    40
100
AcDbLine
 10
179.2982225046
 20
871.1138722516
 30
0.0
 11
213.939238656
 21
871.1138722516
 31
0.0
  0
ELLIPSE
  5
1F6
330
1F
100
AcDbEntity
  8
0
  6
Continuous
 62
     7
370
    40
100
AcDbEllipse
 10
213.939238656
 20
873.9246889457
 30
0.0
 11
40.00000000000006
 21
0.0
 31
0.0
210
0.0
220
0.0
230
1.0
 40
0.1405408347
 41
3.141592653589912
 42
3.665191429188198
  0
LINE
  5
1F7
330
1F
100
AcDbEntity
  8
0
  6
Continuous
 62
     7
370
    40
100
AcDbLine
 10
228.939238656
 20
959.1138722516
 30
0.0
 11
228.939238656
 21
958.1138722516
 31
0.0
  0
ARC
  5
1F8
330
1F
100
AcDbEntity
  8
0
  6
Continuous
 62
     7
370
    40
100
AcDbCircle
 10
253.939238656
 20
959.1138722516
 30
0.0
 40
25.00000000000009
100
AcDbArc
 50
90.0
 51
180.0
  0
LINE
  5
1F9
330
1F
100
AcDbEntity
  8
0
  6
Continuous
 62
     7
370
    40
100
AcDbLine
 10
253.939238656
 20
984.1138722516
 30
0.0
 11
543.939238656
 21
984.1138722516
 31
0.0
  0
ARC
  5
1FA
330
1F
100
AcDbEntity
  8
0
  6
Continuous
 62
     7
370
    40
100
AcDbCircle
 10
543.939238656
 20
959.1138722516
 30
0.0
 40
25.00000000000011
100
AcDbArc
 50
0.0
 51
90.0
  0
LINE
  5
1FB
330
1F
100
AcDbEntity
  8
0
  6
Continuous
 62
     7
370
    40
100
AcDbLine
 10
568.939238656
 20
958.1138722516
 30
0.0
 11
568.939238656
 21
959.1138722516
 31
0.0
  0
ARC
  5
1FC
330
1F
100
AcDbEntity
  8
0
  6
Continuous
 62
     7
370
    40
100
AcDbCircle
 10
580.939238656
 20
958.1138722516
 30
0.0
 40
12.0
100
AcDbArc
 50
180.0
 51
270.0
  0
LINE
  5
1FD
330
1F
100
AcDbEntity
  8
0
  6
Continuous
 62
     7
370
    40
100
AcDbLine
 10
583.939238656
 20
946.1138722516
 30
0.0
 11
580.939238656
 21
946.1138722516
 31
0.0
  0
LINE
  5
1FE
330
1F
100
AcDbEntity
  8
0
  6
Continuous
 62
     7
370
    40
100
AcDbLine
 10
580.8178032918
 20
871.1138722516
 30
0.0
 11
583.939238656
 21
871.1138722516
 31
0.0
  0
ARC
  5
1FF
330
1F
100
AcDbEntity
  8
0
  6
Continuous
 62
     7
370
    40
100
AcDbCircle
 10
580.8178032918
 20
846.1138722516
 30
0.0
 40
25.00000000000007
100
AcDbArc
 50
90.0
 51
140.8287667097
  0
LINE
  5
200
330
1F
100
AcDbEntity
  8
0
  6
Continuous
 62
     7
370
    40
100
AcDbLine
 10
460.9601759657
 20
738.5826607559
 30
0.0
 11
561.4362603825
 21
861.904875844
 31
0.0
  0
ARC
  5
201
330
1F
100
AcDbEntity
  8
0
  6
Continuous
 62
     7
370
    40
100
AcDbCircle
 10
398.939238656
 20
789.1138722516
 30
0.0
 40
80.00000000000009
100
AcDbArc
 50
219.1712332903
 51
320.8287667097
  0
LINE
  5
202
330
1F
100
AcDbEntity
  8
0
  6
Continuous
 62
     7
370
    40
100
AcDbLine
 10
236.4422169295
 20
861.904875844
 30
0.0
 11
336.9183013463
 21
738.5826607559
 31
0.0
  0
ARC
  5
203
330
1F
100
AcDbEntity
  8
0
  6
Continuous
 62
     7
370
    40
100
AcDbCircle
 10
217.0606740202
 20
846.1138722516
 30
0.0
 40
25.0
100
AcDbArc
 50
39.1712332903
 51
90.0
  0
LINE
  5
204
330
1F
100
AcDbEntity
  8
0
  6
Continuous
 62
     7
370
    40
100
AcDbLine
 10
213.939238656
 20
871.1138722516
 30
0.0
 11
217.0606740202
 21
871.1138722516
 31
0.0
  0
LINE
  5
205
330
1F
100
AcDbEntity
  8
0
  6
Continuous
 62
     7
370
    40
100
AcDbLine
 10
216.939238656
 20
946.1138722516
 30
0.0
 11
213.939238656
 21
946.1138722516
 31
0.0
  0
ARC
  5
206
330
1F
100
AcDbEntity
  8
0
  6
Continuous
 62
     7
370
    40
100
AcDbCircle
 10
216.939238656
 20
958.1138722516
 30
0.0
 40
12.0
100
AcDbArc
 50
270.0
 51
0.0
  0
CIRCLE
  5
207
330
1F
100
AcDbEntity
  8
0
  6
Continuous
 62
     7
370
    40
100
AcDbCircle
 10
503.439238656
 20
929.1138722516
 30
0.0
 40
22.5
  0
CIRCLE
  5
208
330
1F
100
AcDbEntity
  8
0
  6
Continuous
 62
     7
370
    40
100
AcDbCircle
 10
294.439238656
 20
929.1138722516
 30
0.0
 40
22.50000000000011
  0
LINE
  5
209
330
1F
100
AcDbEntity
  8
0
  6
Continuous
 62
     7
370
    40
100
AcDbLine
 10
623.939238656
 20
873.9246889457
 30
0.0
 11
623.939238656
 21
946.1138722516
 31
0.0
  0
ELLIPSE
  5
20A
330
1F
100
AcDbEntity
  8
0
  6
Continuous
 62
     7
370
    40
100
AcDbEllipse
 10
583.939238656
 20
873.9246889457
 30
0.0
 11
39.99999999999989
 21
0.0
 31
0.0
210
0.0
220
0.0
230
1.0
 40
0.1405408347
 41
5.759586531581334
 42
6.283185307179586
  0
LINE
  5
20B
330
1F
100
AcDbEntity
  8
0
  6
Continuous
 62
     7
370
    40
100
AcDbLine
 10
583.939238656
 20
871.1138722516
 30
0.0
 11
618.5802548074
 21
871.1138722516
 31
0.0
  0
LINE
  5
20C
330
1F
100
AcDbEntity
  8
0
  6
Continuous
 62
     7
370
    40
100
AcDbLine
 10
623.939238656
 20
946.1138722516
 30
0.0
 11
583.939238656
 21
946.1138722516
 31
0.0
  0
LINE
  5
20D
330
1F
100
AcDbEntity
  8
0
  6
Continuous
 62
     8
370
     0
100
AcDbLine
 10
213.939238656
 20
871.1138722516
 30
0.0
 11
213.939238656
 21
946.1138722516
 31
0.0
  0
LINE
  5
20E
330
1F
100
AcDbEntity
  8
0
  6
Continuous
 62
     8
370
     0
100
AcDbLine
 10
583.939238656
 20
871.1138722516
 30
0.0
 11
583.939238656
 21
946.1138722516
 31
0.0
  0
DIMENSION
  5
20F
330
1F
100
AcDbEntity
  8
0
  6
Continuous
 62
     7
370
     0
100
AcDbDimension
280
     0
  2
_D
 10
503.439238656
 20
1038.1265265565
 30
0.0
 11
398.939238656
 21
1038.1265265565
 31
0.0
 70
   160
  1
<>
 71
     2
 42
-1.0
 73
     0
 74
     0
 75
     0
  3
SLDDIMSTYLE0
100
AcDbAlignedDimension
 13
294.439238656
 23
929.1138722516
 33
0.0
 14
503.439238656
 24
929.1138722516
 34
0.0
100
AcDbRotatedDimension
  0
DIMENSION
  5
21A
330
1F
100
AcDbEntity
  8
SLD-0
100
AcDbDimension
280
     0
  2
_D_1
 10
623.939238656
 20
1071.481153391
 30
0.0
 11
398.939238656
 21
1071.481153391
 31
0.0
 70
   160
  1
<>
 71
     2
 42
-1.0
 73
     0
 74
     0
 75
     0
  3
SLDDIMSTYLE0
100
AcDbAlignedDimension
 13
173.939238656
 23
946.1138722516
 33
0.0
 14
623.939238656
 24
946.1138722516
 34
0.0
100
AcDbRotatedDimension
  0
MTEXT
  5
224
330
1F
100
AcDbEntity
  8
0
  6
Continuous
 62
     7
370
     0
100
AcDbMText
 10
246.6950813132
 20
805.5330432713
 30
0.0
 40
14.0
 41
0.0
 46
0.0
 71
     2
 72
     1
  1
8
  7
SLDTEXTSTYLE1
 73
     1
 44
1.0
  0
LEADER
  5
22E
330
1F
100
AcDbEntity
  8
0
  6
Continuous
 62
     7
370
     0
100
AcDbLeader
  3
SLDDIMSTYLE1
 76
     2
 10
365.958938242
 20
909.96698253
 30
0.0
 10
252.9607843137
 20
805.637254902
 30
0.0
  0
MTEXT
  5
22F
330
1F
100
AcDbEntity
  8
0
  6
Continuous
 62
     7
370
     0
100
AcDbMText
 10
260.7475861447
 20
772.7473306403
 30
0.0
 40
14.0
 41
0.0
 46
0.0
 71
     2
 72
     1
  1
9
  7
SLDTEXTSTYLE1
 73
     1
 44
1.0
  0
LEADER
  5
230
330
1F
100
AcDbEntity
  8
0
  6
Continuous
 62
     7
370
     0
100
AcDbLeader
  3
SLDDIMSTYLE1
 76
     2
 10
365.8781855762
 20
872.1205804892
 30
0.0
 10
266.931372549
 20
772.7941176471
 30
0.0
  0
INSERT
  5
23C
330
1F
100
AcDbEntity
  8
SLD-0
100
AcDbBlockReference
  2
SW_CENTERMARKSYMBOL_0
 10
294.439238656
 20
929.1138722516
 30
0.0
  0
INSERT
  5
248
330
1F
100
AcDbEntity
  8
SLD-0
100
AcDbBlockReference
  2
SW_CENTERMARKSYMBOL_1
 10
398.939238656
 20
769.1138722516
 30
0.0
  0
INSERT
  5
254
330
1F
100
AcDbEntity
  8
SLD-0
100
AcDbBlockReference
  2
SW_CENTERMARKSYMBOL_2
 10
503.439238656
 20
929.1138722516
 30
0.0
  0
INSERT
  5
260
330
1F
100
AcDbEntity
  8
SLD-0
 62
     7
100
AcDbBlockReference
  2
SW_CENTERMARKSYMBOL_3
 10
365.439238656
 20
919.1138722516
 30
0.0
  0
INSERT
  5
26C
330
1F
100
AcDbEntity
  8
SLD-0
 62
     7
100
AcDbBlockReference
  2
SW_CENTERMARKSYMBOL_4
 10
365.439238656
 20
872.1138722516
 30
0.0
  0
INSERT
  5
278
330
1F
100
AcDbEntity
  8
SLD-0
 62
     7
100
AcDbBlockReference
  2
SW_CENTERMARKSYMBOL_5
 10
432.439238656
 20
872.1138722516
 30
0.0
  0
INSERT
  5
284
330
1F
100
AcDbEntity
  8
SLD-0
 62
     7
100
AcDbBlockReference
  2
SW_CENTERMARKSYMBOL_6
 10
432.439238656
 20
919.1138722516
 30
0.0
  0
LINE
  5
285
330
1F
100
AcDbEntity
  8
0
  6
Continuous
 62
     7
370
    40
100
AcDbLine
 10
1431.9537841614
 20
709.1138722516
 30
0.0
 11
1451.9537841614
 21
709.1138722516
 31
0.0
  0
ARC
  5
286
330
1F
100
AcDbEntity
  8
0
  6
Continuous
 62
     7
370
    40
100
AcDbCircle
 10
1162.3315619392
 20
919.1138722516
 30
0.0
 40
2.777777777777833
100
AcDbArc
 50
110.6096929375
 51
249.3903070625
  0
LINE
  5
287
330
1F
100
AcDbEntity
  8
0
  6
Continuous
 62
     7
370
    40
100
AcDbLine
 10
1161.4537841614
 20
921.7138722516
 30
0.0
 11
1161.3537841614
 21
921.7138722516
 31
0.0
  0
LINE
  5
288
330
1F
100
AcDbEntity
  8
0
  6
Continuous
 62
     7
370
    40
100
AcDbLine
 10
1161.3537841614
 20
916.5138722516
 30
0.0
 11
1161.4537841614
 21
916.5138722516
 31
0.0
  0
ARC
  5
289
330
1F
100
AcDbEntity
  8
0
  6
Continuous
 62
     7
370
    40
100
AcDbCircle
 10
1162.3315619392
 20
872.1138722516
 30
0.0
 40
2.777777777777913
100
AcDbArc
 50
110.6096929375
 51
249.3903070625
  0
LINE
  5
28A
330
1F
100
AcDbEntity
  8
0
  6
Continuous
 62
     7
370
    40
100
AcDbLine
 10
1161.4537841614
 20
874.7138722516
 30
0.0
 11
1161.3537841614
 21
874.7138722516
 31
0.0
  0
LINE
  5
28B
330
1F
100
AcDbEntity
  8
0
  6
Continuous
 62
     7
370
    40
100
AcDbLine
 10
1161.3537841614
 20
869.5138722516
 30
0.0
 11
1161.4537841614
 21
869.5138722516
 31
0.0
  0
LINE
  5
28C
330
1F
100
AcDbEntity
  8
0
  6
Continuous
 62
     7
370
    40
100
AcDbLine
 10
1424.4537841614
 20
964.6138722516
 30
0.0
 11
1421.9537841614
 21
964.6138722516
 31
0.0
  0
LINE
  5
28D
330
1F
100
AcDbEntity
  8
0
  6
Continuous
 62
     7
370
    40
100
AcDbLine
 10
1421.9537841614
 20
893.6138722516
 30
0.0
 11
1424.4537841614
 21
893.6138722516
 31
0.0
  0
LINE
  5
28E
330
1F
100
AcDbEntity
  8
0
  6
Continuous
 62
     7
370
    40
100
AcDbLine
 10
1390.7537841614
 20
953.8613461683
 30
0.0
 11
1389.0037841614
 21
953.8613461683
 31
0.0
  0
LINE
  5
28F
330
1F
100
AcDbEntity
  8
0
  6
Continuous
 62
     7
370
    40
100
AcDbLine
 10
1389.0037841614
 20
904.5869689133
 30
0.0
 11
1390.7537841614
 21
904.5869689133
 31
0.0
  0
LINE
  5
290
330
1F
100
AcDbEntity
  8
0
  6
Continuous
 62
     7
370
    40
100
AcDbLine
 10
1190.7005552739
 20
849.1138722516
 30
0.0
 11
1190.9939995541
 21
849.3514987444
 31
0.0
  0
LINE
  5
291
330
1F
100
AcDbEntity
  8
0
  6
Continuous
 62
     7
370
    40
100
AcDbLine
 10
1190.9939995541
 20
1008.8762457589
 30
0.0
 11
1190.7005552739
 21
1009.1138722516
 31
0.0
  0
LINE
  5
292
330
1F
100
AcDbEntity
  8
0
  6
Continuous
 62
     7
370
    40
100
AcDbLine
 10
1185.2537841614
 20
849.1138722516
 30
0.0
 11
1190.7005552739
 21
849.1138722516
 31
0.0
  0
LINE
  5
293
330
1F
100
AcDbEntity
  8
0
  6
Continuous
 62
     7
370
    40
100
AcDbLine
 10
1190.7005552739
 20
1009.1138722516
 30
0.0
 11
1185.2537841614
 21
1009.1138722516
 31
0.0
  0
LINE
  5
294
330
1F
100
AcDbEntity
  8
0
  6
Continuous
 62
     7
370
    40
100
AcDbLine
 10
1185.2537841614
 20
1009.1138722516
 30
0.0
 11
1184.9537841614
 21
1008.8138722516
 31
0.0
  0
LINE
  5
295
330
1F
100
AcDbEntity
  8
0
  6
Continuous
 62
     7
370
    40
100
AcDbLine
 10
1184.9537841614
 20
849.4138722516
 30
0.0
 11
1185.2537841614
 21
849.1138722516
 31
0.0
  0
LINE
  5
296
330
1F
100
AcDbEntity
  8
0
  6
Continuous
 62
     7
370
    40
100
AcDbLine
 10
1190.9939995541
 20
849.3514987444
 30
0.0
 11
1194.3442868051
 21
865.1133610208
 31
0.0
  0
LINE
  5
297
330
1F
100
AcDbEntity
  8
0
  6
Continuous
 62
     7
370
    40
100
AcDbLine
 10
1194.3442868051
 20
993.1143834825
 30
0.0
 11
1190.9939995541
 21
1008.8762457589
 31
0.0
  0
ARC
  5
298
330
1F
100
AcDbEntity
  8
0
  6
Continuous
 62
     7
370
    40
100
AcDbCircle
 10
1197.2787296073
 20
864.4896259483
 30
0.0
 40
3.000000000000029
100
AcDbArc
 50
80.6202114715
 51
168.0
  0
ARC
  5
299
330
1F
100
AcDbEntity
  8
0
  6
Continuous
 62
     7
370
    40
100
AcDbCircle
 10
1197.2787296073
 20
993.7381185549
 30
0.0
 40
3.000000000000141
100
AcDbArc
 50
192.0
 51
279.3797885285
  0
ARC
  5
29A
330
1F
100
AcDbEntity
  8
0
  6
Continuous
 62
     7
370
    40
100
AcDbCircle
 10
1207.9537841614
 20
929.1138722516
 30
0.0
 40
62.5000000000001
100
AcDbArc
 50
260.6202114715
 51
288.6222737909
  0
ARC
  5
29B
330
1F
100
AcDbEntity
  8
0
  6
Continuous
 62
     7
370
    40
100
AcDbCircle
 10
1207.9537841614
 20
929.1138722516
 30
0.0
 40
62.5000000000001
100
AcDbArc
 50
71.3777262091
 51
99.3797885285
  0
ARC
  5
29C
330
1F
100
AcDbEntity
  8
0
  6
Continuous
 62
     7
370
    40
100
AcDbCircle
 10
1226.9537841614
 20
872.729033864
 30
0.0
 40
3.000000000000138
100
AcDbArc
 50
288.6222737909
 51
0.0
  0
ARC
  5
29D
330
1F
100
AcDbEntity
  8
0
  6
Continuous
 62
     7
370
    40
100
AcDbCircle
 10
1226.9537841614
 20
985.4987106393
 30
0.0
 40
3.00000000000003
100
AcDbArc
 50
0.0
 51
71.3777262091
  0
ARC
  5
29E
330
1F
100
AcDbEntity
  8
0
  6
Continuous
 62
     7
370
    40
100
AcDbCircle
 10
1369.4537841614
 20
740.1138722516
 30
0.0
 40
3.5
100
AcDbArc
 50
90.0
 51
180.0
  0
ARC
  5
29F
330
1F
100
AcDbEntity
  8
0
  6
Continuous
 62
     7
370
    40
100
AcDbCircle
 10
1369.4537841614
 20
798.1138722516
 30
0.0
 40
3.500000000000114
100
AcDbArc
 50
180.0
 51
270.0
  0
LINE
  5
2A0
330
1F
100
AcDbEntity
  8
0
  6
Continuous
 62
     7
370
    40
100
AcDbLine
 10
1365.1568049076
 20
740.1138722516
 30
0.0
 11
1365.9537841614
 21
740.1138722516
 31
0.0
  0
LINE
  5
2A1
330
1F
100
AcDbEntity
  8
0
  6
Continuous
 62
     7
370
    40
100
AcDbLine
 10
1365.9537841614
 20
798.1138722516
 30
0.0
 11
1365.1568049076
 21
798.1138722516
 31
0.0
  0
LINE
  5
2A2
330
1F
100
AcDbEntity
  8
0
  6
Continuous
 62
     7
370
    40
100
AcDbLine
 10
1248.7507634152
 20
798.1138722516
 30
0.0
 11
1247.9537841614
 21
798.1138722516
 31
0.0
  0
LINE
  5
2A3
330
1F
100
AcDbEntity
  8
0
  6
Continuous
 62
     7
370
    40
100
AcDbLine
 10
1247.9537841614
 20
740.1138722516
 30
0.0
 11
1248.7507634152
 21
740.1138722516
 31
0.0
  0
ARC
  5
2A4
330
1F
100
AcDbEntity
  8
0
  6
Continuous
 62
     7
370
    40
100
AcDbCircle
 10
1244.4537841614
 20
798.1138722516
 30
0.0
 40
3.500000000000227
100
AcDbArc
 50
270.0
 51
0.0
  0
ARC
  5
2A5
330
1F
100
AcDbEntity
  8
0
  6
Continuous
 62
     7
370
    40
100
AcDbCircle
 10
1244.4537841614
 20
740.1138722516
 30
0.0
 40
3.500000000000227
100
AcDbArc
 50
0.0
 51
90.0
  0
LINE
  5
2A6
330
1F
100
AcDbEntity
  8
0
  6
Continuous
 62
     7
370
    40
100
AcDbLine
 10
1471.4537841614
 20
743.1138722516
 30
0.0
 11
1474.4537841614
 21
746.1138722516
 31
0.0
  0
LINE
  5
2A7
330
1F
100
AcDbEntity
  8
0
  6
Continuous
 62
     7
370
    40
100
AcDbLine
 10
1474.4537841614
 20
792.1138722516
 30
0.0
 11
1471.4537841614
 21
795.1138722516
 31
0.0
  0
LINE
  5
2A8
330
1F
100
AcDbEntity
  8
0
  6
Continuous
 62
     7
370
    40
100
AcDbLine
 10
1370.3198095652
 20
743.1138722516
 30
0.0
 11
1431.9537841614
 21
743.1138722516
 31
0.0
  0
LINE
  5
2A9
330
1F
100
AcDbEntity
  8
0
  6
Continuous
 62
     7
370
    40
100
AcDbLine
 10
1467.9537841614
 20
743.1138722516
 30
0.0
 11
1471.4537841614
 21
743.1138722516
 31
0.0
  0
LINE
  5
2AA
330
1F
100
AcDbEntity
  8
0
  6
Continuous
 62
     7
370
    40
100
AcDbLine
 10
1471.4537841614
 20
795.1138722516
 30
0.0
 11
1467.9537841614
 21
795.1138722516
 31
0.0
  0
LINE
  5
2AB
330
1F
100
AcDbEntity
  8
0
  6
Continuous
 62
     7
370
    40
100
AcDbLine
 10
1431.9537841614
 20
795.1138722516
 30
0.0
 11
1370.3198095652
 21
795.1138722516
 31
0.0
  0
LINE
  5
2AC
330
1F
100
AcDbEntity
  8
0
  6
Continuous
 62
     7
370
    40
100
AcDbLine
 10
1370.3198095652
 20
795.1138722516
 30
0.0
 11
1369.4537841614
 21
794.6138722516
 31
0.0
  0
LINE
  5
2AD
330
1F
100
AcDbEntity
  8
0
  6
Continuous
 62
     7
370
    40
100
AcDbLine
 10
1369.4537841614
 20
743.6138722516
 30
0.0
 11
1370.3198095652
 21
743.1138722516
 31
0.0
  0
LINE
  5
2AE
330
1F
100
AcDbEntity
  8
0
  6
Continuous
 62
     7
370
    40
100
AcDbLine
 10
1243.5877587576
 20
795.1138722516
 30
0.0
 11
1181.9537841614
 21
795.1138722516
 31
0.0
  0
LINE
  5
2AF
330
1F
100
AcDbEntity
  8
0
  6
Continuous
 62
     7
370
    40
100
AcDbLine
 10
1145.9537841614
 20
795.1138722516
 30
0.0
 11
1142.4537841614
 21
795.1138722516
 31
0.0
  0
LINE
  5
2B0
330
1F
100
AcDbEntity
  8
0
  6
Continuous
 62
     7
370
    40
100
AcDbLine
 10
1142.4537841614
 20
743.1138722516
 30
0.0
 11
1145.9537841614
 21
743.1138722516
 31
0.0
  0
LINE
  5
2B1
330
1F
100
AcDbEntity
  8
0
  6
Continuous
 62
     7
370
    40
100
AcDbLine
 10
1181.9537841614
 20
743.1138722516
 30
0.0
 11
1243.5877587576
 21
743.1138722516
 31
0.0
  0
LINE
  5
2B2
330
1F
100
AcDbEntity
  8
0
  6
Continuous
 62
     7
370
    40
100
AcDbLine
 10
1243.5877587576
 20
743.1138722516
 30
0.0
 11
1244.4537841614
 21
743.6138722516
 31
0.0
  0
LINE
  5
2B3
330
1F
100
AcDbEntity
  8
0
  6
Continuous
 62
     7
370
    40
100
AcDbLine
 10
1244.4537841614
 20
794.6138722516
 30
0.0
 11
1243.5877587576
 21
795.1138722516
 31
0.0
  0
LINE
  5
2B4
330
1F
100
AcDbEntity
  8
0
  6
Continuous
 62
     7
370
    40
100
AcDbLine
 10
1142.4537841614
 20
795.1138722516
 30
0.0
 11
1139.4537841614
 21
792.1138722516
 31
0.0
  0
LINE
  5
2B5
330
1F
100
AcDbEntity
  8
0
  6
Continuous
 62
     7
370
    40
100
AcDbLine
 10
1139.4537841614
 20
746.1138722516
 30
0.0
 11
1142.4537841614
 21
743.1138722516
 31
0.0
  0
ARC
  5
2B6
330
1F
100
AcDbEntity
  8
0
  6
Continuous
 62
     7
370
    40
100
AcDbCircle
 10
1306.9537841614
 20
764.1138722516
 30
0.0
 40
30.0
100
AcDbArc
 50
180.0
 51
360.0
  0
ARC
  5
2B7
330
1F
100
AcDbEntity
  8
0
  6
Continuous
 62
     7
370
    40
100
AcDbCircle
 10
1306.9537841614
 20
764.1138722516
 30
0.0
 40
63.00000000000011
100
AcDbArc
 50
202.3825812028
 51
337.6174016701
  0
ARC
  5
2B8
330
1F
100
AcDbEntity
  8
0
  6
Continuous
 62
     7
370
    40
100
AcDbCircle
 10
1306.9537841614
 20
774.1138722516
 30
0.0
 40
30.0
100
AcDbArc
 50
360.0
 51
180.0
  0
ARC
  5
2B9
330
1F
100
AcDbEntity
  8
0
  6
Continuous
 62
     7
370
    40
100
AcDbCircle
 10
1306.9537841614
 20
774.1138722516
 30
0.0
 40
63.00000000000018
100
AcDbArc
 50
22.382453967
 51
157.6174307322
  0
LINE
  5
2BA
330
1F
100
AcDbEntity
  8
0
  6
Continuous
 62
     7
370
    40
100
AcDbLine
 10
1336.9537841614
 20
774.1138722516
 30
0.0
 11
1336.9537841614
 21
764.1138722516
 31
0.0
  0
LINE
  5
2BB
330
1F
100
AcDbEntity
  8
0
  6
Continuous
 62
     7
370
    40
100
AcDbLine
 10
1276.9537841614
 20
764.1138722516
 30
0.0
 11
1276.9537841614
 21
774.1138722516
 31
0.0
  0
LINE
  5
2BC
330
1F
100
AcDbEntity
  8
0
  6
Continuous
 62
     7
370
    40
100
AcDbLine
 10
1465.9537841614
 20
726.6138722516
 30
0.0
 11
1467.9537841614
 21
728.6138722516
 31
0.0
  0
LINE
  5
2BD
330
1F
100
AcDbEntity
  8
0
  6
Continuous
 62
     7
370
    40
100
AcDbLine
 10
1467.9537841614
 20
809.6138722516
 30
0.0
 11
1465.9537841614
 21
811.6138722516
 31
0.0
  0
LINE
  5
2BE
330
1F
100
AcDbEntity
  8
0
  6
Continuous
 62
     7
370
    40
100
AcDbLine
 10
1451.9537841614
 20
726.6138722516
 30
0.0
 11
1465.9537841614
 21
726.6138722516
 31
0.0
  0
LINE
  5
2BF
330
1F
100
AcDbEntity
  8
0
  6
Continuous
 62
     7
370
    40
100
AcDbLine
 10
1465.9537841614
 20
811.6138722516
 30
0.0
 11
1451.9537841614
 21
811.6138722516
 31
0.0
  0
LINE
  5
2C0
330
1F
100
AcDbEntity
  8
0
  6
Continuous
 62
     7
370
    40
100
AcDbLine
 10
1161.9537841614
 20
811.6138722516
 30
0.0
 11
1147.9537841614
 21
811.6138722516
 31
0.0
  0
LINE
  5
2C1
330
1F
100
AcDbEntity
  8
0
  6
Continuous
 62
     7
370
    40
100
AcDbLine
 10
1147.9537841614
 20
726.6138722516
 30
0.0
 11
1161.9537841614
 21
726.6138722516
 31
0.0
  0
LINE
  5
2C2
330
1F
100
AcDbEntity
  8
0
  6
Continuous
 62
     7
370
    40
100
AcDbLine
 10
1147.9537841614
 20
811.6138722516
 30
0.0
 11
1145.9537841614
 21
809.6138722516
 31
0.0
  0
LINE
  5
2C3
330
1F
100
AcDbEntity
  8
0
  6
Continuous
 62
     7
370
    40
100
AcDbLine
 10
1145.9537841614
 20
728.6138722516
 30
0.0
 11
1147.9537841614
 21
726.6138722516
 31
0.0
  0
LINE
  5
2C4
330
1F
100
AcDbEntity
  8
0
  6
Continuous
 62
     7
370
    40
100
AcDbLine
 10
1184.9537841614
 20
951.6138722516
 30
0.0
 11
1181.9537841614
 21
951.6138722516
 31
0.0
  0
LINE
  5
2C5
330
1F
100
AcDbEntity
  8
0
  6
Continuous
 62
     7
370
    40
100
AcDbLine
 10
1161.9537841614
 20
709.1138722516
 30
0.0
 11
1181.9537841614
 21
709.1138722516
 31
0.0
  0
ARC
  5
2C6
330
1F
100
AcDbEntity
  8
0
  6
Continuous
 62
     7
370
    40
100
AcDbCircle
 10
1406.9537841614
 20
896.1138722516
 30
0.0
 40
1.000000000000227
100
AcDbArc
 50
180.0
 51
270.0
  0
ARC
  5
2C7
330
1F
100
AcDbEntity
  8
0
  6
Continuous
 62
     7
370
    40
100
AcDbCircle
 10
1406.9537841614
 20
962.1138722516
 30
0.0
 40
1.000000000000227
100
AcDbArc
 50
90.0
 51
180.0
  0
ARC
  5
2C8
330
1F
100
AcDbEntity
  8
0
  6
Continuous
 62
     7
370
    40
100
AcDbCircle
 10
1406.9537841614
 20
908.1138722516
 30
0.0
 40
1.000000000000227
100
AcDbArc
 50
90.0
 51
179.9999999999
  0
ARC
  5
2C9
330
1F
100
AcDbEntity
  8
0
  6
Continuous
 62
     7
370
    40
100
AcDbCircle
 10
1406.9537841614
 20
950.1138722516
 30
0.0
 40
1.000000000000227
100
AcDbArc
 50
179.9999999999
 51
270.0
  0
LINE
  5
2CA
330
1F
100
AcDbEntity
  8
0
  6
Continuous
 62
     7
370
    40
100
AcDbLine
 10
1405.9537841614
 20
908.1138722516
 30
0.0
 11
1405.9537841614
 21
909.1138722516
 31
0.0
  0
LINE
  5
2CB
330
1F
100
AcDbEntity
  8
0
  6
Continuous
 62
     7
370
    40
100
AcDbLine
 10
1405.9537841614
 20
949.1138722516
 30
0.0
 11
1405.9537841614
 21
950.1138722516
 31
0.0
  0
ARC
  5
2CC
330
1F
100
AcDbEntity
  8
0
  6
Continuous
 62
     7
370
    40
100
AcDbCircle
 10
1419.9537841614
 20
896.1138722516
 30
0.0
 40
1.0
100
AcDbArc
 50
270.0
 51
0.0
  0
ARC
  5
2CD
330
1F
100
AcDbEntity
  8
0
  6
Continuous
 62
     7
370
    40
100
AcDbCircle
 10
1419.9537841614
 20
962.1138722516
 30
0.0
 40
1.0
100
AcDbArc
 50
0.0
 51
90.0
  0
ARC
  5
2CE
330
1F
100
AcDbEntity
  8
0
  6
Continuous
 62
     7
370
    40
100
AcDbCircle
 10
1419.9537841614
 20
908.1138722516
 30
0.0
 40
1.0
100
AcDbArc
 50
0.0000000001
 51
90.0
  0
ARC
  5
2CF
330
1F
100
AcDbEntity
  8
0
  6
Continuous
 62
     7
370
    40
100
AcDbCircle
 10
1419.9537841614
 20
950.1138722516
 30
0.0
 40
1.0
100
AcDbArc
 50
270.0
 51
0.0000000001
  0
LINE
  5
2D0
330
1F
100
AcDbEntity
  8
0
  6
Continuous
 62
     7
370
    40
100
AcDbLine
 10
1406.9537841614
 20
949.1138722516
 30
0.0
 11
1419.9537841614
 21
949.1138722516
 31
0.0
  0
LINE
  5
2D1
330
1F
100
AcDbEntity
  8
0
  6
Continuous
 62
     7
370
    40
100
AcDbLine
 10
1419.9537841614
 20
909.1138722516
 30
0.0
 11
1406.9537841614
 21
909.1138722516
 31
0.0
  0
LINE
  5
2D2
330
1F
100
AcDbEntity
  8
0
  6
Continuous
 62
     7
370
    40
100
AcDbLine
 10
1406.9537841614
 20
963.1138722516
 30
0.0
 11
1419.9537841614
 21
963.1138722516
 31
0.0
  0
LINE
  5
2D3
330
1F
100
AcDbEntity
  8
0
  6
Continuous
 62
     7
370
    40
100
AcDbLine
 10
1419.9537841614
 20
895.1138722516
 30
0.0
 11
1406.9537841614
 21
895.1138722516
 31
0.0
  0
LINE
  5
2D4
330
1F
100
AcDbEntity
  8
0
  6
Continuous
 62
     7
370
    40
100
AcDbLine
 10
1420.9537841614
 20
950.1138722516
 30
0.0
 11
1420.9537841614
 21
962.1138722516
 31
0.0
  0
LINE
  5
2D5
330
1F
100
AcDbEntity
  8
0
  6
Continuous
 62
     7
370
    40
100
AcDbLine
 10
1405.9537841614
 20
950.1138722516
 30
0.0
 11
1405.9537841614
 21
962.1138722516
 31
0.0
  0
LINE
  5
2D6
330
1F
100
AcDbEntity
  8
0
  6
Continuous
 62
     7
370
    40
100
AcDbLine
 10
1420.9537841614
 20
896.1138722516
 30
0.0
 11
1420.9537841614
 21
908.1138722516
 31
0.0
  0
LINE
  5
2D7
330
1F
100
AcDbEntity
  8
0
  6
Continuous
 62
     7
370
    40
100
AcDbLine
 10
1405.9537841614
 20
896.1138722516
 30
0.0
 11
1405.9537841614
 21
908.1138722516
 31
0.0
  0
LINE
  5
2D8
330
1F
100
AcDbEntity
  8
0
  6
Continuous
 62
     7
370
    40
100
AcDbLine
 10
1404.9537841614
 20
895.1138722516
 30
0.0
 11
1391.9537841614
 21
895.1138722516
 31
0.0
  0
LINE
  5
2D9
330
1F
100
AcDbEntity
  8
0
  6
Continuous
 62
     7
370
    40
100
AcDbLine
 10
1391.9537841614
 20
963.1138722516
 30
0.0
 11
1404.9537841614
 21
963.1138722516
 31
0.0
  0
LINE
  5
2DA
330
1F
100
AcDbEntity
  8
0
  6
Continuous
 62
     7
370
    40
100
AcDbLine
 10
1404.9537841614
 20
909.1138722516
 30
0.0
 11
1391.9537841614
 21
909.1138722516
 31
0.0
  0
LINE
  5
2DB
330
1F
100
AcDbEntity
  8
0
  6
Continuous
 62
     7
370
    40
100
AcDbLine
 10
1391.9537841614
 20
949.1138722516
 30
0.0
 11
1404.9537841614
 21
949.1138722516
 31
0.0
  0
ARC
  5
2DC
330
1F
100
AcDbEntity
  8
0
  6
Continuous
 62
     7
370
    40
100
AcDbCircle
 10
1391.9537841614
 20
962.1138722516
 30
0.0
 40
1.0
100
AcDbArc
 50
90.0
 51
180.0
  0
ARC
  5
2DD
330
1F
100
AcDbEntity
  8
0
  6
Continuous
 62
     7
370
    40
100
AcDbCircle
 10
1391.9537841614
 20
896.1138722516
 30
0.0
 40
1.0
100
AcDbArc
 50
180.0
 51
270.0
  0
LINE
  5
2DE
330
1F
100
AcDbEntity
  8
0
  6
Continuous
 62
     7
370
    40
100
AcDbLine
 10
1390.9537841614
 20
908.1138722516
 30
0.0
 11
1390.9537841614
 21
909.1138722516
 31
0.0
  0
LINE
  5
2DF
330
1F
100
AcDbEntity
  8
0
  6
Continuous
 62
     7
370
    40
100
AcDbLine
 10
1390.9537841614
 20
949.1138722516
 30
0.0
 11
1390.9537841614
 21
950.1138722516
 31
0.0
  0
ARC
  5
2E0
330
1F
100
AcDbEntity
  8
0
  6
Continuous
 62
     7
370
    40
100
AcDbCircle
 10
1391.9537841614
 20
950.1138722516
 30
0.0
 40
1.0
100
AcDbArc
 50
179.9999999999
 51
270.0
  0
ARC
  5
2E1
330
1F
100
AcDbEntity
  8
0
  6
Continuous
 62
     7
370
    40
100
AcDbCircle
 10
1391.9537841614
 20
908.1138722516
 30
0.0
 40
1.0
100
AcDbArc
 50
90.0
 51
179.9999999999
  0
ARC
  5
2E2
330
1F
100
AcDbEntity
  8
0
  6
Continuous
 62
     7
370
    40
100
AcDbCircle
 10
1404.9537841614
 20
950.1138722516
 30
0.0
 40
1.0
100
AcDbArc
 50
270.0
 51
0.0000000001
  0
ARC
  5
2E3
330
1F
100
AcDbEntity
  8
0
  6
Continuous
 62
     7
370
    40
100
AcDbCircle
 10
1404.9537841614
 20
908.1138722516
 30
0.0
 40
1.0
100
AcDbArc
 50
0.0000000001
 51
90.0
  0
ARC
  5
2E4
330
1F
100
AcDbEntity
  8
0
  6
Continuous
 62
     7
370
    40
100
AcDbCircle
 10
1404.9537841614
 20
962.1138722516
 30
0.0
 40
1.0
100
AcDbArc
 50
0.0
 51
90.0
  0
ARC
  5
2E5
330
1F
100
AcDbEntity
  8
0
  6
Continuous
 62
     7
370
    40
100
AcDbCircle
 10
1404.9537841614
 20
896.1138722516
 30
0.0
 40
1.0
100
AcDbArc
 50
270.0
 51
0.0
  0
LINE
  5
2E6
330
1F
100
AcDbEntity
  8
0
  6
Continuous
 62
     7
370
    40
100
AcDbLine
 10
1390.9537841614
 20
962.1138722516
 30
0.0
 11
1390.9537841614
 21
950.1138722516
 31
0.0
  0
LINE
  5
2E7
330
1F
100
AcDbEntity
  8
0
  6
Continuous
 62
     7
370
    40
100
AcDbLine
 10
1390.9537841614
 20
908.1138722516
 30
0.0
 11
1390.9537841614
 21
896.1138722516
 31
0.0
  0
LINE
  5
2E8
330
1F
100
AcDbEntity
  8
0
  6
Continuous
 62
     7
370
    40
100
AcDbLine
 10
1428.9537841614
 20
1008.8138722516
 30
0.0
 11
1428.6537841614
 21
1009.1138722516
 31
0.0
  0
LINE
  5
2E9
330
1F
100
AcDbEntity
  8
0
  6
Continuous
 62
     7
370
    40
100
AcDbLine
 10
1428.6537841614
 20
849.1138722516
 30
0.0
 11
1428.9537841614
 21
849.4138722516
 31
0.0
  0
LINE
  5
2EA
330
1F
100
AcDbEntity
  8
0
  6
Continuous
 62
     7
370
    40
100
AcDbLine
 10
1428.6537841614
 20
849.1138722516
 30
0.0
 11
1423.2070130488
 21
849.1138722516
 31
0.0
  0
LINE
  5
2EB
330
1F
100
AcDbEntity
  8
0
  6
Continuous
 62
     7
370
    40
100
AcDbLine
 10
1423.2070130488
 20
1009.1138722516
 30
0.0
 11
1428.6537841614
 21
1009.1138722516
 31
0.0
  0
LINE
  5
2EC
330
1F
100
AcDbEntity
  8
0
  6
Continuous
 62
     7
370
    40
100
AcDbLine
 10
1422.9135687686
 20
849.3514987444
 30
0.0
 11
1423.2070130488
 21
849.1138722516
 31
0.0
  0
LINE
  5
2ED
330
1F
100
AcDbEntity
  8
0
  6
Continuous
 62
     7
370
    40
100
AcDbLine
 10
1423.2070130488
 20
1009.1138722516
 30
0.0
 11
1422.9135687686
 21
1008.8762457589
 31
0.0
  0
LINE
  5
2EE
330
1F
100
AcDbEntity
  8
0
  6
Continuous
 62
     7
370
    40
100
AcDbLine
 10
1422.9135687686
 20
849.3514987444
 30
0.0
 11
1419.5632815176
 21
865.1133610208
 31
0.0
  0
LINE
  5
2EF
330
1F
100
AcDbEntity
  8
0
  6
Continuous
 62
     7
370
    40
100
AcDbLine
 10
1419.5632815176
 20
993.1143834825
 30
0.0
 11
1422.9135687686
 21
1008.8762457589
 31
0.0
  0
ARC
  5
2F0
330
1F
100
AcDbEntity
  8
0
  6
Continuous
 62
     7
370
    40
100
AcDbCircle
 10
1416.6288387154
 20
864.4896259483
 30
0.0
 40
3.000000000000029
100
AcDbArc
 50
12.0
 51
99.3797885285
  0
ARC
  5
2F1
330
1F
100
AcDbEntity
  8
0
  6
Continuous
 62
     7
370
    40
100
AcDbCircle
 10
1416.6288387154
 20
993.7381185549
 30
0.0
 40
3.000000000000029
100
AcDbArc
 50
260.6202114715
 51
348.0
  0
ARC
  5
2F2
330
1F
100
AcDbEntity
  8
0
  6
Continuous
 62
     7
370
    40
100
AcDbCircle
 10
1405.9537841614
 20
929.1138722516
 30
0.0
 40
62.50000000000013
100
AcDbArc
 50
251.3777262091
 51
279.3797885285
  0
ARC
  5
2F3
330
1F
100
AcDbEntity
  8
0
  6
Continuous
 62
     7
370
    40
100
AcDbCircle
 10
1405.9537841614
 20
929.1138722516
 30
0.0
 40
62.50000000000003
100
AcDbArc
 50
80.6202114715
 51
108.6222737909
  0
ARC
  5
2F4
330
1F
100
AcDbEntity
  8
0
  6
Continuous
 62
     7
370
    40
100
AcDbCircle
 10
1386.9537841614
 20
872.729033864
 30
0.0
 40
3.000000000000227
100
AcDbArc
 50
180.0
 51
251.3777262091
  0
ARC
  5
2F5
330
1F
100
AcDbEntity
  8
0
  6
Continuous
 62
     7
370
    40
100
AcDbCircle
 10
1386.9537841614
 20
985.4987106393
 30
0.0
 40
3.000000000000227
100
AcDbArc
 50
108.6222737909
 51
180.0
  0
LINE
  5
2F6
330
1F
100
AcDbEntity
  8
0
  6
Continuous
 62
     7
370
    40
100
AcDbLine
 10
1421.9537841614
 20
893.6138722516
 30
0.0
 11
1424.6537841614
 21
893.6138722516
 31
0.0
  0
LINE
  5
2F7
330
1F
100
AcDbEntity
  8
0
  6
Continuous
 62
     7
370
    40
100
AcDbLine
 10
1424.6537841614
 20
964.6138722516
 30
0.0
 11
1421.9537841614
 21
964.6138722516
 31
0.0
  0
LINE
  5
2F8
330
1F
100
AcDbEntity
  8
0
  6
Continuous
 62
     7
370
    40
100
AcDbLine
 10
1427.9537841614
 20
895.1138722516
 30
0.0
 11
1428.9537841614
 21
894.1138722516
 31
0.0
  0
LINE
  5
2F9
330
1F
100
AcDbEntity
  8
0
  6
Continuous
 62
     7
370
    40
100
AcDbLine
 10
1427.9537841614
 20
895.1138722516
 30
0.0
 11
1427.9537841614
 21
906.6138722516
 31
0.0
  0
LINE
  5
2FA
330
1F
100
AcDbEntity
  8
0
  6
Continuous
 62
     7
370
    40
100
AcDbLine
 10
1427.9537841614
 20
951.6138722516
 30
0.0
 11
1427.9537841614
 21
963.1138722516
 31
0.0
  0
LINE
  5
2FB
330
1F
100
AcDbEntity
  8
0
  6
Continuous
 62
     7
370
    40
100
AcDbLine
 10
1428.9537841614
 20
964.1138722516
 30
0.0
 11
1427.9537841614
 21
963.1138722516
 31
0.0
  0
LINE
  5
2FC
330
1F
100
AcDbEntity
  8
0
  6
Continuous
 62
     7
370
    40
100
AcDbLine
 10
1428.9537841614
 20
894.1138722516
 30
0.0
 11
1428.9537841614
 21
906.6138722516
 31
0.0
  0
LINE
  5
2FD
330
1F
100
AcDbEntity
  8
0
  6
Continuous
 62
     7
370
    40
100
AcDbLine
 10
1428.9537841614
 20
951.6138722516
 30
0.0
 11
1428.9537841614
 21
964.1138722516
 31
0.0
  0
LINE
  5
2FE
330
1F
100
AcDbEntity
  8
0
  6
Continuous
 62
     7
370
    40
100
AcDbLine
 10
1390.9537841614
 20
894.8138722516
 30
0.0
 11
1393.9537841614
 21
894.8138722516
 31
0.0
  0
LINE
  5
2FF
330
1F
100
AcDbEntity
  8
0
  6
Continuous
 62
     7
370
    40
100
AcDbLine
 10
1393.9537841614
 20
963.4138722516
 30
0.0
 11
1390.9537841614
 21
963.4138722516
 31
0.0
  0
LINE
  5
300
330
1F
100
AcDbEntity
  8
0
  6
Continuous
 62
     7
370
    40
100
AcDbLine
 10
1393.9537841614
 20
895.1138722516
 30
0.0
 11
1421.9537841614
 21
895.1138722516
 31
0.0
  0
LINE
  5
301
330
1F
100
AcDbEntity
  8
0
  6
Continuous
 62
     7
370
    40
100
AcDbLine
 10
1421.9537841614
 20
963.1138722516
 30
0.0
 11
1393.9537841614
 21
963.1138722516
 31
0.0
  0
LINE
  5
302
330
1F
100
AcDbEntity
  8
0
  6
Continuous
 62
     7
370
    40
100
AcDbLine
 10
1424.6537841614
 20
895.1138722516
 30
0.0
 11
1427.9537841614
 21
895.1138722516
 31
0.0
  0
LINE
  5
303
330
1F
100
AcDbEntity
  8
0
  6
Continuous
 62
     7
370
    40
100
AcDbLine
 10
1427.9537841614
 20
963.1138722516
 30
0.0
 11
1424.6537841614
 21
963.1138722516
 31
0.0
  0
LINE
  5
304
330
1F
100
AcDbEntity
  8
0
  6
Continuous
 62
     7
370
    40
100
AcDbLine
 10
1424.6537841614
 20
895.1138722516
 30
0.0
 11
1424.6537841614
 21
906.6138722516
 31
0.0
  0
LINE
  5
305
330
1F
100
AcDbEntity
  8
0
  6
Continuous
 62
     7
370
    40
100
AcDbLine
 10
1424.6537841614
 20
951.6138722516
 30
0.0
 11
1424.6537841614
 21
963.1138722516
 31
0.0
  0
LINE
  5
306
330
1F
100
AcDbEntity
  8
0
  6
Continuous
 62
     7
370
    40
100
AcDbLine
 10
1384.9537841614
 20
898.6138722516
 30
0.0
 11
1387.1537841614
 21
898.6138722516
 31
0.0
  0
LINE
  5
307
330
1F
100
AcDbEntity
  8
0
  6
Continuous
 62
     7
370
    40
100
AcDbLine
 10
1387.1537841614
 20
959.6138722516
 30
0.0
 11
1384.9537841614
 21
959.6138722516
 31
0.0
  0
LINE
  5
308
330
1F
100
AcDbEntity
  8
0
  6
Continuous
 62
     7
370
    40
100
AcDbLine
 10
1383.9537841614
 20
958.6138722516
 30
0.0
 11
1384.4537841614
 21
958.1138722516
 31
0.0
  0
LINE
  5
309
330
1F
100
AcDbEntity
  8
0
  6
Continuous
 62
     7
370
    40
100
AcDbLine
 10
1384.4537841614
 20
958.1138722516
 30
0.0
 11
1384.4537841614
 21
948.6138722516
 31
0.0
  0
LINE
  5
30A
330
1F
100
AcDbEntity
  8
0
  6
Continuous
 62
     7
370
    40
100
AcDbLine
 10
1384.4537841614
 20
909.6138722516
 30
0.0
 11
1384.4537841614
 21
900.1138722516
 31
0.0
  0
LINE
  5
30B
330
1F
100
AcDbEntity
  8
0
  6
Continuous
 62
     7
370
    40
100
AcDbLine
 10
1384.4537841614
 20
900.1138722516
 30
0.0
 11
1383.9537841614
 21
899.6138722516
 31
0.0
  0
LINE
  5
30C
330
1F
100
AcDbEntity
  8
0
  6
Continuous
 62
     7
370
    40
100
AcDbLine
 10
1383.9537841614
 20
899.6138722516
 30
0.0
 11
1383.9537841614
 21
958.6138722516
 31
0.0
  0
LINE
  5
30D
330
1F
100
AcDbEntity
  8
0
  6
Continuous
 62
     7
370
    40
100
AcDbLine
 10
1387.1537841614
 20
900.1138722516
 30
0.0
 11
1387.9537841614
 21
900.1138722516
 31
0.0
  0
LINE
  5
30E
330
1F
100
AcDbEntity
  8
0
  6
Continuous
 62
     7
370
    40
100
AcDbLine
 10
1387.9537841614
 20
958.1138722516
 30
0.0
 11
1387.1537841614
 21
958.1138722516
 31
0.0
  0
LINE
  5
30F
330
1F
100
AcDbEntity
  8
0
  6
Continuous
 62
     7
370
    40
100
AcDbLine
 10
1387.1537841614
 20
900.1138722516
 30
0.0
 11
1387.1537841614
 21
909.1138722516
 31
0.0
  0
LINE
  5
310
330
1F
100
AcDbEntity
  8
0
  6
Continuous
 62
     7
370
    40
100
AcDbLine
 10
1387.1537841614
 20
949.1138722516
 30
0.0
 11
1387.1537841614
 21
958.1138722516
 31
0.0
  0
LINE
  5
311
330
1F
100
AcDbEntity
  8
0
  6
Continuous
 62
     7
370
    40
100
AcDbLine
 10
1384.4537841614
 20
900.1138722516
 30
0.0
 11
1384.9537841614
 21
900.1138722516
 31
0.0
  0
LINE
  5
312
330
1F
100
AcDbEntity
  8
0
  6
Continuous
 62
     7
370
    40
100
AcDbLine
 10
1384.9537841614
 20
958.1138722516
 30
0.0
 11
1384.4537841614
 21
958.1138722516
 31
0.0
  0
LINE
  5
313
330
1F
100
AcDbEntity
  8
0
  6
Continuous
 62
     7
370
    40
100
AcDbLine
 10
1384.9537841614
 20
900.1138722516
 30
0.0
 11
1384.9537841614
 21
909.1138722516
 31
0.0
  0
LINE
  5
314
330
1F
100
AcDbEntity
  8
0
  6
Continuous
 62
     7
370
    40
100
AcDbLine
 10
1384.9537841614
 20
949.1138722516
 30
0.0
 11
1384.9537841614
 21
958.1138722516
 31
0.0
  0
LINE
  5
315
330
1F
100
AcDbEntity
  8
0
  6
Continuous
 62
     7
370
    40
100
AcDbLine
 10
1387.9537841614
 20
901.1138722516
 30
0.0
 11
1390.9537841614
 21
901.1138722516
 31
0.0
  0
LINE
  5
316
330
1F
100
AcDbEntity
  8
0
  6
Continuous
 62
     7
370
    40
100
AcDbLine
 10
1390.9537841614
 20
957.1138722516
 30
0.0
 11
1387.9537841614
 21
957.1138722516
 31
0.0
  0
LINE
  5
317
330
1F
100
AcDbEntity
  8
0
  6
Continuous
 62
     7
370
    40
100
AcDbLine
 10
1387.9537841614
 20
901.1138722516
 30
0.0
 11
1387.9537841614
 21
909.1138722516
 31
0.0
  0
LINE
  5
318
330
1F
100
AcDbEntity
  8
0
  6
Continuous
 62
     7
370
    40
100
AcDbLine
 10
1387.9537841614
 20
949.1138722516
 30
0.0
 11
1387.9537841614
 21
957.1138722516
 31
0.0
  0
LINE
  5
319
330
1F
100
AcDbEntity
  8
0
  6
Continuous
 62
     7
370
    40
100
AcDbLine
 10
1387.9537841614
 20
900.1138722516
 30
0.0
 11
1387.9537841614
 21
901.1138722516
 31
0.0
  0
LINE
  5
31A
330
1F
100
AcDbEntity
  8
0
  6
Continuous
 62
     7
370
    40
100
AcDbLine
 10
1387.1537841614
 20
898.6138722516
 30
0.0
 11
1387.1537841614
 21
900.1138722516
 31
0.0
  0
LINE
  5
31B
330
1F
100
AcDbEntity
  8
0
  6
Continuous
 62
     7
370
    40
100
AcDbLine
 10
1384.9537841614
 20
900.1138722516
 30
0.0
 11
1384.9537841614
 21
898.6138722516
 31
0.0
  0
LINE
  5
31C
330
1F
100
AcDbEntity
  8
0
  6
Continuous
 62
     7
370
    40
100
AcDbLine
 10
1393.9537841614
 20
894.8138722516
 30
0.0
 11
1393.9537841614
 21
895.1138722516
 31
0.0
  0
LINE
  5
31D
330
1F
100
AcDbEntity
  8
0
  6
Continuous
 62
     7
370
    40
100
AcDbLine
 10
1390.9537841614
 20
901.1138722516
 30
0.0
 11
1390.9537841614
 21
894.8138722516
 31
0.0
  0
LINE
  5
31E
330
1F
100
AcDbEntity
  8
0
  6
Continuous
 62
     7
370
    40
100
AcDbLine
 10
1424.6537841614
 20
893.6138722516
 30
0.0
 11
1424.6537841614
 21
895.1138722516
 31
0.0
  0
LINE
  5
31F
330
1F
100
AcDbEntity
  8
0
  6
Continuous
 62
     7
370
    40
100
AcDbLine
 10
1383.9537841614
 20
872.729033864
 30
0.0
 11
1383.9537841614
 21
899.6138722516
 31
0.0
  0
LINE
  5
320
330
1F
100
AcDbEntity
  8
0
  6
Continuous
 62
     7
370
    40
100
AcDbLine
 10
1428.9537841614
 20
894.1138722516
 30
0.0
 11
1428.9537841614
 21
849.4138722516
 31
0.0
  0
LINE
  5
321
330
1F
100
AcDbEntity
  8
0
  6
Continuous
 62
     7
370
    40
100
AcDbLine
 10
1387.9537841614
 20
957.1138722516
 30
0.0
 11
1387.9537841614
 21
958.1138722516
 31
0.0
  0
LINE
  5
322
330
1F
100
AcDbEntity
  8
0
  6
Continuous
 62
     7
370
    40
100
AcDbLine
 10
1387.1537841614
 20
958.1138722516
 30
0.0
 11
1387.1537841614
 21
959.6138722516
 31
0.0
  0
LINE
  5
323
330
1F
100
AcDbEntity
  8
0
  6
Continuous
 62
     7
370
    40
100
AcDbLine
 10
1384.9537841614
 20
959.6138722516
 30
0.0
 11
1384.9537841614
 21
958.1138722516
 31
0.0
  0
LINE
  5
324
330
1F
100
AcDbEntity
  8
0
  6
Continuous
 62
     7
370
    40
100
AcDbLine
 10
1393.9537841614
 20
963.1138722516
 30
0.0
 11
1393.9537841614
 21
963.4138722516
 31
0.0
  0
LINE
  5
325
330
1F
100
AcDbEntity
  8
0
  6
Continuous
 62
     7
370
    40
100
AcDbLine
 10
1390.9537841614
 20
963.4138722516
 30
0.0
 11
1390.9537841614
 21
957.1138722516
 31
0.0
  0
LINE
  5
326
330
1F
100
AcDbEntity
  8
0
  6
Continuous
 62
     7
370
    40
100
AcDbLine
 10
1424.6537841614
 20
963.1138722516
 30
0.0
 11
1424.6537841614
 21
964.6138722516
 31
0.0
  0
LINE
  5
327
330
1F
100
AcDbEntity
  8
0
  6
Continuous
 62
     7
370
    40
100
AcDbLine
 10
1383.9537841614
 20
958.6138722516
 30
0.0
 11
1383.9537841614
 21
985.4987106393
 31
0.0
  0
LINE
  5
328
330
1F
100
AcDbEntity
  8
0
  6
Continuous
 62
     7
370
    40
100
AcDbLine
 10
1428.9537841614
 20
1008.8138722516
 30
0.0
 11
1428.9537841614
 21
964.1138722516
 31
0.0
  0
LINE
  5
329
330
1F
100
AcDbEntity
  8
0
  6
Continuous
 62
     7
370
    40
100
AcDbLine
 10
1420.9537841614
 20
951.6138722516
 30
0.0
 11
1421.9537841614
 21
951.6138722516
 31
0.0
  0
LINE
  5
32A
330
1F
100
AcDbEntity
  8
0
  6
Continuous
 62
     7
370
    40
100
AcDbLine
 10
1424.4537841614
 20
951.6138722516
 30
0.0
 11
1451.4537841614
 21
951.6138722516
 31
0.0
  0
LINE
  5
32B
330
1F
100
AcDbEntity
  8
0
  6
Continuous
 62
     7
370
    40
100
AcDbLine
 10
1451.4537841614
 20
951.6138722516
 30
0.0
 11
1451.9537841614
 21
951.1138722516
 31
0.0
  0
LINE
  5
32C
330
1F
100
AcDbEntity
  8
0
  6
Continuous
 62
     7
370
    40
100
AcDbLine
 10
1451.9537841614
 20
951.1138722516
 30
0.0
 11
1451.9537841614
 21
907.1138722516
 31
0.0
  0
LINE
  5
32D
330
1F
100
AcDbEntity
  8
0
  6
Continuous
 62
     7
370
    40
100
AcDbLine
 10
1451.9537841614
 20
907.1138722516
 30
0.0
 11
1451.4537841614
 21
906.6138722516
 31
0.0
  0
LINE
  5
32E
330
1F
100
AcDbEntity
  8
0
  6
Continuous
 62
     7
370
    40
100
AcDbLine
 10
1451.4537841614
 20
906.6138722516
 30
0.0
 11
1424.4537841614
 21
906.6138722516
 31
0.0
  0
LINE
  5
32F
330
1F
100
AcDbEntity
  8
0
  6
Continuous
 62
     7
370
    40
100
AcDbLine
 10
1421.9537841614
 20
906.6138722516
 30
0.0
 11
1420.9537841614
 21
906.6138722516
 31
0.0
  0
LINE
  5
330
330
1F
100
AcDbEntity
  8
0
  6
Continuous
 62
     7
370
    40
100
AcDbLine
 10
1419.9537841614
 20
909.1138722516
 30
0.0
 11
1390.7537841614
 21
909.1138722516
 31
0.0
  0
LINE
  5
331
330
1F
100
AcDbEntity
  8
0
  6
Continuous
 62
     7
370
    40
100
AcDbLine
 10
1389.0037841614
 20
910.3638722516
 30
0.0
 11
1388.9037841614
 21
910.3638722516
 31
0.0
  0
LINE
  5
332
330
1F
100
AcDbEntity
  8
0
  6
Continuous
 62
     7
370
    40
100
AcDbLine
 10
1388.9037841614
 20
910.3638722516
 30
0.0
 11
1388.9037841614
 21
909.1138722516
 31
0.0
  0
LINE
  5
333
330
1F
100
AcDbEntity
  8
0
  6
Continuous
 62
     7
370
    40
100
AcDbLine
 10
1388.9037841614
 20
909.1138722516
 30
0.0
 11
1384.9537841614
 21
909.1138722516
 31
0.0
  0
LINE
  5
334
330
1F
100
AcDbEntity
  8
0
  6
Continuous
 62
     7
370
    40
100
AcDbLine
 10
1384.9537841614
 20
909.1138722516
 30
0.0
 11
1384.4537841614
 21
909.6138722516
 31
0.0
  0
LINE
  5
335
330
1F
100
AcDbEntity
  8
0
  6
Continuous
 62
     7
370
    40
100
AcDbLine
 10
1384.4537841614
 20
909.6138722516
 30
0.0
 11
1384.4537841614
 21
926.9888722516
 31
0.0
  0
LINE
  5
336
330
1F
100
AcDbEntity
  8
0
  6
Continuous
 62
     7
370
    40
100
AcDbLine
 10
1386.4023413199
 20
928.1138722516
 30
0.0
 11
1384.4537841614
 21
926.9888722516
 31
0.0
  0
LINE
  5
337
330
1F
100
AcDbEntity
  8
0
  6
Continuous
 62
     7
370
    40
100
AcDbLine
 10
1387.5764338922
 20
928.1138722516
 30
0.0
 11
1386.4023413199
 21
928.1138722516
 31
0.0
  0
LINE
  5
338
330
1F
100
AcDbEntity
  8
0
  6
Continuous
 62
     7
370
    40
100
AcDbLine
 10
1388.1537841614
 20
929.1138722516
 30
0.0
 11
1387.5764338922
 21
928.1138722516
 31
0.0
  0
LINE
  5
339
330
1F
100
AcDbEntity
  8
0
  6
Continuous
 62
     7
370
    40
100
AcDbLine
 10
1387.5764338922
 20
930.1138722516
 30
0.0
 11
1388.1537841614
 21
929.1138722516
 31
0.0
  0
LINE
  5
33A
330
1F
100
AcDbEntity
  8
0
  6
Continuous
 62
     7
370
    40
100
AcDbLine
 10
1386.4023413199
 20
930.1138722516
 30
0.0
 11
1387.5764338922
 21
930.1138722516
 31
0.0
  0
LINE
  5
33B
330
1F
100
AcDbEntity
  8
0
  6
Continuous
 62
     7
370
    40
100
AcDbLine
 10
1384.4537841614
 20
931.2388722516
 30
0.0
 11
1386.4023413199
 21
930.1138722516
 31
0.0
  0
LINE
  5
33C
330
1F
100
AcDbEntity
  8
0
  6
Continuous
 62
     7
370
    40
100
AcDbLine
 10
1384.4537841614
 20
931.2388722516
 30
0.0
 11
1384.4537841614
 21
948.6138722516
 31
0.0
  0
LINE
  5
33D
330
1F
100
AcDbEntity
  8
0
  6
Continuous
 62
     7
370
    40
100
AcDbLine
 10
1384.4537841614
 20
948.6138722516
 30
0.0
 11
1384.9537841614
 21
949.1138722516
 31
0.0
  0
LINE
  5
33E
330
1F
100
AcDbEntity
  8
0
  6
Continuous
 62
     7
370
    40
100
AcDbLine
 10
1384.9537841614
 20
949.1138722516
 30
0.0
 11
1388.9037841614
 21
949.1138722516
 31
0.0
  0
LINE
  5
33F
330
1F
100
AcDbEntity
  8
0
  6
Continuous
 62
     7
370
    40
100
AcDbLine
 10
1388.9037841614
 20
949.1138722516
 30
0.0
 11
1388.9037841614
 21
947.8638722516
 31
0.0
  0
LINE
  5
340
330
1F
100
AcDbEntity
  8
0
  6
Continuous
 62
     7
370
    40
100
AcDbLine
 10
1388.9037841614
 20
947.8638722516
 30
0.0
 11
1389.0037841614
 21
947.8638722516
 31
0.0
  0
LINE
  5
341
330
1F
100
AcDbEntity
  8
0
  6
Continuous
 62
     7
370
    40
100
AcDbLine
 10
1390.7537841614
 20
949.1138722516
 30
0.0
 11
1419.9537841614
 21
949.1138722516
 31
0.0
  0
LINE
  5
342
330
1F
100
AcDbEntity
  8
0
  6
Continuous
 62
     7
370
    40
100
AcDbLine
 10
1420.9537841614
 20
950.1138722516
 30
0.0
 11
1420.9537841614
 21
951.6138722516
 31
0.0
  0
LINE
  5
343
330
1F
100
AcDbEntity
  8
0
  6
Continuous
 62
     7
370
    40
100
AcDbLine
 10
1420.9537841614
 20
906.6138722516
 30
0.0
 11
1420.9537841614
 21
908.1138722516
 31
0.0
  0
LINE
  5
344
330
1F
100
AcDbEntity
  8
0
  6
Continuous
 62
     7
370
    40
100
AcDbLine
 10
1384.4537841614
 20
926.9888722516
 30
0.0
 11
1384.4537841614
 21
931.2388722516
 31
0.0
  0
LINE
  5
345
330
1F
100
AcDbEntity
  8
0
  6
Continuous
 62
     7
370
    40
100
AcDbLine
 10
1386.4023413199
 20
928.1138722516
 30
0.0
 11
1386.4023413199
 21
930.1138722516
 31
0.0
  0
LINE
  5
346
330
1F
100
AcDbEntity
  8
0
  6
Continuous
 62
     7
370
    40
100
AcDbLine
 10
1387.5764338922
 20
928.1138722516
 30
0.0
 11
1387.5764338922
 21
930.1138722516
 31
0.0
  0
LINE
  5
347
330
1F
100
AcDbEntity
  8
0
  6
Continuous
 62
     7
370
    40
100
AcDbLine
 10
1451.9537841614
 20
843.6982914141
 30
0.0
 11
1451.9537841614
 21
738.5826607559
 31
0.0
  0
LINE
  5
348
330
1F
100
AcDbEntity
  8
0
  6
Continuous
 62
     7
370
    40
100
AcDbLine
 10
1431.9537841614
 20
738.5826607559
 30
0.0
 11
1431.9537841614
 21
842.6337720655
 31
0.0
  0
SPLINE
  5
349
330
1F
100
AcDbEntity
  8
0
  6
Continuous
 62
     7
370
     0
100
AcDbSpline
210
0.0
220
0.0
230
1.0
 70
     8
 71
     3
 72
    12
 73
     8
 74
     0
 42
0.000000001
 43
0.00000001
 40
0.0
 40
0.0
 40
0.0
 40
0.0
 40
0.1850126282908618
 40
0.369803634310991
 40
0.5596606685073812
 40
0.7498200979312347
 40
1.0
 40
1.0
 40
1.0
 40
1.0
 10
1431.953784161384
 20
842.6337720654835
 30
0.0
 10
1433.161491665091
 20
842.8576010517227
 30
0.0
 10
1435.575459988124
 20
843.3049909047293
 30
0.0
 10
1439.297182792309
 20
843.742958806137
 30
0.0
 10
1443.094104175219
 20
843.8128305418115
 30
0.0
 10
1447.318738207488
 20
843.6502506289859
 30
0.0
 10
1450.274474901815
 20
843.6808859048285
 30
0.0
 10
1451.953784161384
 20
843.6982914140847
 30
0.0
  0
LINE
  5
34A
330
1F
100
AcDbEntity
  8
0
  6
Continuous
 62
     7
370
    40
100
AcDbLine
 10
1451.9537841614
 20
951.6138722516
 30
0.0
 11
1431.9537841614
 21
951.6138722516
 31
0.0
  0
LINE
  5
34B
330
1F
100
AcDbEntity
  8
0
  6
Continuous
 62
     7
370
    40
100
AcDbLine
 10
1431.9537841614
 20
906.6138722516
 30
0.0
 11
1451.9537841614
 21
906.6138722516
 31
0.0
  0
LINE
  5
34C
330
1F
100
AcDbEntity
  8
0
  6
Continuous
 62
     7
370
    40
100
AcDbLine
 10
1451.9537841614
 20
951.6138722516
 30
0.0
 11
1451.9537841614
 21
951.1138722516
 31
0.0
  0
LINE
  5
34D
330
1F
100
AcDbEntity
  8
0
  6
Continuous
 62
     7
370
    40
100
AcDbLine
 10
1451.9537841614
 20
907.1138722516
 30
0.0
 11
1451.9537841614
 21
906.6138722516
 31
0.0
  0
LINE
  5
34E
330
1F
100
AcDbEntity
  8
0
  6
Continuous
 62
     7
370
    40
100
AcDbLine
 10
1431.9537841614
 20
906.6138722516
 30
0.0
 11
1431.9537841539
 21
842.633772064
 31
0.0
  0
LINE
  5
34F
330
1F
100
AcDbEntity
  8
0
  6
Continuous
 62
     7
370
    40
100
AcDbLine
 10
1451.9537841419
 20
843.6982914131
 30
0.0
 11
1451.9537841614
 21
906.6138722516
 31
0.0
  0
LINE
  5
350
330
1F
100
AcDbEntity
  8
0
  6
Continuous
 62
     7
370
    40
100
AcDbLine
 10
1451.9537841614
 20
984.1138722516
 30
0.0
 11
1431.9537841614
 21
984.1138722516
 31
0.0
  0
LINE
  5
351
330
1F
100
AcDbEntity
  8
0
  6
Continuous
 62
     7
370
    40
100
AcDbLine
 10
1431.9537841614
 20
984.1138722516
 30
0.0
 11
1431.9537841614
 21
951.6138722516
 31
0.0
  0
LINE
  5
352
330
1F
100
AcDbEntity
  8
0
  6
Continuous
 62
     7
370
    40
100
AcDbLine
 10
1451.9537841614
 20
951.6138722516
 30
0.0
 11
1451.9537841614
 21
984.1138722516
 31
0.0
  0
LINE
  5
353
330
1F
100
AcDbEntity
  8
0
  6
Continuous
 62
     7
370
    40
100
AcDbLine
 10
1431.9537841614
 20
709.1138722516
 30
0.0
 11
1431.9537841614
 21
738.5826607559
 31
0.0
  0
LINE
  5
354
330
1F
100
AcDbEntity
  8
0
  6
Continuous
 62
     7
370
    40
100
AcDbLine
 10
1451.9537841614
 20
738.5826607559
 30
0.0
 11
1451.9537841614
 21
709.1138722516
 31
0.0
  0
LINE
  5
355
330
1F
100
AcDbEntity
  8
0
  6
Continuous
 62
     7
370
    40
100
AcDbLine
 10
1431.9537841614
 20
871.1138722516
 30
0.0
 11
1428.9537841614
 21
871.5354947557
 31
0.0
  0
LINE
  5
356
330
1F
100
AcDbEntity
  8
0
  6
Continuous
 62
     7
370
    40
100
AcDbLine
 10
1161.3537841614
 20
919.1138722516
 30
0.0
 11
1161.3537841614
 21
921.7138722516
 31
0.0
  0
LINE
  5
357
330
1F
100
AcDbEntity
  8
0
  6
Continuous
 62
     7
370
    40
100
AcDbLine
 10
1161.3537841614
 20
916.5138722516
 30
0.0
 11
1161.3537841614
 21
919.1138722516
 31
0.0
  0
LINE
  5
358
330
1F
100
AcDbEntity
  8
0
  6
Continuous
 62
     7
370
    40
100
AcDbLine
 10
1161.3537841614
 20
872.1138722516
 30
0.0
 11
1161.3537841614
 21
874.7138722516
 31
0.0
  0
LINE
  5
359
330
1F
100
AcDbEntity
  8
0
  6
Continuous
 62
     7
370
    40
100
AcDbLine
 10
1161.3537841614
 20
869.5138722516
 30
0.0
 11
1161.3537841614
 21
872.1138722516
 31
0.0
  0
LINE
  5
35A
330
1F
100
AcDbEntity
  8
0
  6
Continuous
 62
     7
370
    40
100
AcDbLine
 10
1161.9537841614
 20
923.1138722516
 30
0.0
 11
1161.4537841614
 21
923.1138722516
 31
0.0
  0
LINE
  5
35B
330
1F
100
AcDbEntity
  8
0
  6
Continuous
 62
     7
370
    40
100
AcDbLine
 10
1161.9537841614
 20
868.1138722516
 30
0.0
 11
1161.4537841614
 21
868.1138722516
 31
0.0
  0
LINE
  5
35C
330
1F
100
AcDbEntity
  8
0
  6
Continuous
 62
     7
370
    40
100
AcDbLine
 10
1161.4537841614
 20
868.1138722516
 30
0.0
 11
1161.4537841614
 21
923.1138722516
 31
0.0
  0
LINE
  5
35D
330
1F
100
AcDbEntity
  8
0
  6
Continuous
 62
     7
370
    40
100
AcDbLine
 10
1421.9537841614
 20
893.6138722516
 30
0.0
 11
1421.9537841614
 21
964.6138722516
 31
0.0
  0
LINE
  5
35E
330
1F
100
AcDbEntity
  8
0
  6
Continuous
 62
     7
370
    40
100
AcDbLine
 10
1424.4537841614
 20
893.6138722516
 30
0.0
 11
1424.4537841614
 21
964.6138722516
 31
0.0
  0
LINE
  5
35F
330
1F
100
AcDbEntity
  8
0
  6
Continuous
 62
     7
370
    40
100
AcDbLine
 10
1389.0037841614
 20
904.6117549384
 30
0.0
 11
1389.0037841614
 21
953.8613461683
 31
0.0
  0
LINE
  5
360
330
1F
100
AcDbEntity
  8
0
  6
Continuous
 62
     7
370
    40
100
AcDbLine
 10
1390.7537841614
 20
904.6117549384
 30
0.0
 11
1390.7537841614
 21
953.8613461683
 31
0.0
  0
LINE
  5
361
330
1F
100
AcDbEntity
  8
0
  6
Continuous
 62
     7
370
    40
100
AcDbLine
 10
1389.0037841614
 20
904.5869689133
 30
0.0
 11
1389.0037841614
 21
904.6117549384
 31
0.0
  0
LINE
  5
362
330
1F
100
AcDbEntity
  8
0
  6
Continuous
 62
     7
370
    40
100
AcDbLine
 10
1390.7537841614
 20
904.6117549384
 30
0.0
 11
1390.7537841614
 21
904.5869689133
 31
0.0
  0
LINE
  5
363
330
1F
100
AcDbEntity
  8
0
  6
Continuous
 62
     7
370
    40
100
AcDbLine
 10
1190.7005552739
 20
849.1138722516
 30
0.0
 11
1190.7005552739
 21
872.3431507647
 31
0.0
  0
LINE
  5
364
330
1F
100
AcDbEntity
  8
0
  6
Continuous
 62
     7
370
    40
100
AcDbLine
 10
1190.7005552739
 20
946.1138722516
 30
0.0
 11
1190.7005552739
 21
1009.1138722516
 31
0.0
  0
LINE
  5
365
330
1F
100
AcDbEntity
  8
0
  6
Continuous
 62
     7
370
    40
100
AcDbLine
 10
1190.9939995541
 20
1008.8762457589
 30
0.0
 11
1190.9939995541
 21
946.1138722516
 31
0.0
  0
LINE
  5
366
330
1F
100
AcDbEntity
  8
0
  6
Continuous
 62
     7
370
    40
100
AcDbLine
 10
1190.9939995541
 20
872.3843916688
 30
0.0
 11
1190.9939995541
 21
849.3514987444
 31
0.0
  0
LINE
  5
367
330
1F
100
AcDbEntity
  8
0
  6
Continuous
 62
     7
370
    40
100
AcDbLine
 10
1185.2537841614
 20
1009.1138722516
 30
0.0
 11
1185.2537841614
 21
946.1138722516
 31
0.0
  0
LINE
  5
368
330
1F
100
AcDbEntity
  8
0
  6
Continuous
 62
     7
370
    40
100
AcDbLine
 10
1185.2537841614
 20
871.5776570061
 30
0.0
 11
1185.2537841614
 21
849.1138722516
 31
0.0
  0
LINE
  5
369
330
1F
100
AcDbEntity
  8
0
  6
Continuous
 62
     7
370
    40
100
AcDbLine
 10
1184.9537841614
 20
849.4138722516
 30
0.0
 11
1184.9537841614
 21
871.5354947557
 31
0.0
  0
LINE
  5
36A
330
1F
100
AcDbEntity
  8
0
  6
Continuous
 62
     7
370
    40
100
AcDbLine
 10
1184.9537841614
 20
946.1138722516
 30
0.0
 11
1184.9537841614
 21
1008.8138722516
 31
0.0
  0
LINE
  5
36B
330
1F
100
AcDbEntity
  8
0
  6
Continuous
 62
     7
370
    40
100
AcDbLine
 10
1229.9537841614
 20
872.729033873
 30
0.0
 11
1229.9537841614
 21
883.0755527442
 31
0.0
  0
LINE
  5
36C
330
1F
100
AcDbEntity
  8
0
  6
Continuous
 62
     7
370
    40
100
AcDbLine
 10
1229.9537841614
 20
940.1138722516
 30
0.0
 11
1229.9537841614
 21
985.4987106393
 31
0.0
  0
LINE
  5
36D
330
1F
100
AcDbEntity
  8
0
  6
Continuous
 62
     7
370
    40
100
AcDbLine
 10
1354.9651454875
 20
764.1138722516
 30
0.0
 11
1354.9651454875
 21
774.1138722516
 31
0.0
  0
SPLINE
  5
36E
330
1F
100
AcDbEntity
  8
0
  6
Continuous
 62
     7
370
    40
100
AcDbSpline
210
0.0
220
0.0
230
1.0
 70
     8
 71
     3
 72
     9
 73
     5
 74
     0
 42
0.000000001
 43
0.00000001
 40
0.0
 40
0.0
 40
0.0
 40
0.0
 40
0.4991100027504916
 40
1.0
 40
1.0
 40
1.0
 40
1.0
 10
1354.965145487457
 20
774.1138722516195
 30
0.0
 10
1355.0340365935
 20
775.7968265975694
 30
0.0
 10
1355.172064494491
 20
779.1687372719209
 30
0.0
 10
1355.595753008198
 20
782.5122183787058
 30
0.0
 10
1355.807974346664
 20
784.1869346210871
 30
0.0
  0
LINE
  5
36F
330
1F
100
AcDbEntity
  8
0
  6
Continuous
 62
     7
370
    40
100
AcDbLine
 10
1363.9537841614
 20
788.9011015121
 30
0.0
 11
1363.9537841614
 21
749.3266429912
 31
0.0
  0
SPLINE
  5
370
330
1F
100
AcDbEntity
  8
0
  6
Continuous
 62
     7
370
    40
100
AcDbSpline
210
0.0
220
0.0
230
1.0
 70
     8
 71
     3
 72
     9
 73
     5
 74
     0
 42
0.000000001
 43
0.00000001
 40
0.0
 40
0.0
 40
0.0
 40
0.0
 40
0.4986826013938407
 40
1.0
 40
1.0
 40
1.0
 40
1.0
 10
1355.807974346664
 20
754.0408098821534
 30
0.0
 10
1355.596533725923
 20
755.7081176829225
 30
0.0
 10
1355.172535334661
 20
759.0515425309299
 30
0.0
 10
1355.034396758903
 20
762.4234675651629
 30
0.0
 10
1354.965145487457
 20
764.1138722516196
 30
0.0
  0
LINE
  5
371
330
1F
100
AcDbEntity
  8
0
  6
Continuous
 62
     7
370
    40
100
AcDbLine
 10
1249.9537841614
 20
788.9011015121
 30
0.0
 11
1249.9537841614
 21
749.3266429912
 31
0.0
  0
SPLINE
  5
372
330
1F
100
AcDbEntity
  8
0
  6
Continuous
 62
     7
370
    40
100
AcDbSpline
210
0.0
220
0.0
230
1.0
 70
     8
 71
     3
 72
     9
 73
     5
 74
     0
 42
0.000000001
 43
0.00000001
 40
0.0
 40
0.0
 40
0.0
 40
0.0
 40
0.4986826013938369
 40
1.0
 40
1.0
 40
1.0
 40
1.0
 10
1258.099593976106
 20
784.1869346210871
 30
0.0
 10
1258.311034596848
 20
782.5196268203177
 30
0.0
 10
1258.73503298811
 20
779.1762019723101
 30
0.0
 10
1258.873171563868
 20
775.804276938077
 30
0.0
 10
1258.942422835314
 20
774.1138722516203
 30
0.0
  0
LINE
  5
373
330
1F
100
AcDbEntity
  8
0
  6
Continuous
 62
     7
370
    40
100
AcDbLine
 10
1258.9424228353
 20
764.1138722516
 30
0.0
 11
1258.9424228353
 21
774.1138722516
 31
0.0
  0
SPLINE
  5
374
330
1F
100
AcDbEntity
  8
0
  6
Continuous
 62
     7
370
    40
100
AcDbSpline
210
0.0
220
0.0
230
1.0
 70
     8
 71
     3
 72
     9
 73
     5
 74
     0
 42
0.000000001
 43
0.00000001
 40
0.0
 40
0.0
 40
0.0
 40
0.0
 40
0.4991100027504901
 40
1.0
 40
1.0
 40
1.0
 40
1.0
 10
1258.942422835314
 20
764.1138722516214
 30
0.0
 10
1258.873531729271
 20
762.4309179056714
 30
0.0
 10
1258.73550382828
 20
759.0590072313197
 30
0.0
 10
1258.311815314572
 20
755.7155261245348
 30
0.0
 10
1258.099593976107
 20
754.0408098821534
 30
0.0
  0
LINE
  5
375
330
1F
100
AcDbEntity
  8
0
  6
Continuous
 62
     7
370
    40
100
AcDbLine
 10
1365.9537841614
 20
798.1138721669
 30
0.0
 11
1365.9537841614
 21
740.1138722516
 31
0.0
  0
LINE
  5
376
330
1F
100
AcDbEntity
  8
0
  6
Continuous
 62
     7
370
    40
100
AcDbLine
 10
1369.4537841614
 20
794.6138722516
 30
0.0
 11
1369.4537841614
 21
743.6138722516
 31
0.0
  0
LINE
  5
377
330
1F
100
AcDbEntity
  8
0
  6
Continuous
 62
     7
370
    40
100
AcDbLine
 10
1363.9537841614
 20
749.3266429912
 30
0.0
 11
1363.9537841614
 21
740.9199021664
 31
0.0
  0
LINE
  5
378
330
1F
100
AcDbEntity
  8
0
  6
Continuous
 62
     7
370
    40
100
AcDbLine
 10
1363.9537841614
 20
797.3078423369
 30
0.0
 11
1363.9537841614
 21
788.9011015121
 31
0.0
  0
SPLINE
  5
379
330
1F
100
AcDbEntity
  8
0
  6
Continuous
 62
     7
370
    40
100
AcDbSpline
210
0.0
220
0.0
230
1.0
 70
     8
 71
     3
 72
    10
 73
     6
 74
     0
 42
0.000000001
 43
0.00000001
 40
0.0
 40
0.0
 40
0.0
 40
0.0
 40
0.3866317039309526
 40
0.784352639294722
 40
0.9999999999999999
 40
0.9999999999999999
 40
0.9999999999999999
 40
0.9999999999999999
 10
1363.953784161386
 20
797.3078423368657
 30
0.0
 10
1364.235306449636
 20
797.4854313621673
 30
0.0
 10
1364.806425547126
 20
797.8457029573023
 30
0.0
 10
1365.18037562756
 20
798.0988078533892
 30
0.0
 10
1365.162936231518
 20
798.0869103073184
 30
0.0
 10
1365.15680490756
 20
798.0827273809665
 30
0.0
  0
SPLINE
  5
37A
330
1F
100
AcDbEntity
  8
0
  6
Continuous
 62
     7
370
    40
100
AcDbSpline
210
0.0
220
0.0
230
1.0
 70
     8
 71
     3
 72
    10
 73
     6
 74
     0
 42
0.000000001
 43
0.00000001
 40
0.0
 40
0.0
 40
0.0
 40
0.0
 40
0.1710802732491878
 40
0.569182120002429
 40
1.0
 40
1.0
 40
1.0
 40
1.0
 10
1365.15680490756
 20
740.1450171222739
 30
0.0
 10
1365.166923133892
 20
740.138175238584
 30
0.0
 10
1365.200586357622
 20
740.1154123694965
 30
0.0
 10
1364.856297322616
 20
740.349445526827
 30
0.0
 10
1364.262434792047
 20
740.7248116024637
 30
0.0
 10
1363.953784161386
 20
740.9199021663745
 30
0.0
  0
SPLINE
  5
37B
330
1F
100
AcDbEntity
  8
0
  6
Continuous
 62
     7
370
    40
100
AcDbSpline
210
0.0
220
0.0
230
1.0
 70
     8
 71
     3
 72
    10
 73
     6
 74
     0
 42
0.000000001
 43
0.00000001
 40
0.0
 40
0.0
 40
0.0
 40
0.0
 40
0.386631703930953
 40
0.7843526392947225
 40
1.0
 40
1.0
 40
1.0
 40
1.0
 10
1249.953784161386
 20
797.307842336866
 30
0.0
 10
1249.672261873135
 20
797.4854313621674
 30
0.0
 10
1249.101142775645
 20
797.8457029573023
 30
0.0
 10
1248.727192695211
 20
798.0988078533892
 30
0.0
 10
1248.744632091253
 20
798.0869103073184
 30
0.0
 10
1248.750763415211
 20
798.0827273809665
 30
0.0
  0
LINE
  5
37C
330
1F
100
AcDbEntity
  8
0
  6
Continuous
 62
     7
370
    40
100
AcDbLine
 10
1249.9537841614
 20
797.3078423369
 30
0.0
 11
1249.9537841614
 21
788.9011015121
 31
0.0
  0
LINE
  5
37D
330
1F
100
AcDbEntity
  8
0
  6
Continuous
 62
     7
370
    40
100
AcDbLine
 10
1249.9537841614
 20
749.3266429912
 30
0.0
 11
1249.9537841614
 21
740.9199021664
 31
0.0
  0
SPLINE
  5
37E
330
1F
100
AcDbEntity
  8
0
  6
Continuous
 62
     7
370
    40
100
AcDbSpline
210
0.0
220
0.0
230
1.0
 70
     8
 71
     3
 72
    10
 73
     6
 74
     0
 42
0.000000001
 43
0.00000001
 40
0.0
 40
0.0
 40
0.0
 40
0.0
 40
0.1710802732491876
 40
0.5691821200024282
 40
1.0
 40
1.0
 40
1.0
 40
1.0
 10
1248.750763415211
 20
740.1450171222739
 30
0.0
 10
1248.740645188879
 20
740.1381752385839
 30
0.0
 10
1248.706981965148
 20
740.1154123694964
 30
0.0
 10
1249.051271000155
 20
740.3494455268271
 30
0.0
 10
1249.645133530724
 20
740.7248116024635
 30
0.0
 10
1249.953784161386
 20
740.9199021663743
 30
0.0
  0
LINE
  5
37F
330
1F
100
AcDbEntity
  8
0
  6
Continuous
 62
     7
370
    40
100
AcDbLine
 10
1247.9537841614
 20
740.1138722516
 30
0.0
 11
1247.9537841614
 21
798.1138722516
 31
0.0
  0
LINE
  5
380
330
1F
100
AcDbEntity
  8
0
  6
Continuous
 62
     7
370
    40
100
AcDbLine
 10
1244.4537841614
 20
794.6138722516
 30
0.0
 11
1244.4537841614
 21
743.6138722516
 31
0.0
  0
LINE
  5
381
330
1F
100
AcDbEntity
  8
0
  6
Continuous
 62
     7
370
    40
100
AcDbLine
 10
1471.4537841614
 20
795.1138722516
 30
0.0
 11
1471.4537841614
 21
743.1138722516
 31
0.0
  0
LINE
  5
382
330
1F
100
AcDbEntity
  8
0
  6
Continuous
 62
     7
370
    40
100
AcDbLine
 10
1474.4537841614
 20
792.1138722516
 30
0.0
 11
1474.4537841614
 21
746.1138722516
 31
0.0
  0
LINE
  5
383
330
1F
100
AcDbEntity
  8
0
  6
Continuous
 62
     7
370
    40
100
AcDbLine
 10
1370.3198095652
 20
795.1138722516
 30
0.0
 11
1370.3198095652
 21
743.1138722516
 31
0.0
  0
LINE
  5
384
330
1F
100
AcDbEntity
  8
0
  6
Continuous
 62
     7
370
    40
100
AcDbLine
 10
1243.5877587576
 20
795.1138722516
 30
0.0
 11
1243.5877587576
 21
743.1138722516
 31
0.0
  0
LINE
  5
385
330
1F
100
AcDbEntity
  8
0
  6
Continuous
 62
     7
370
    40
100
AcDbLine
 10
1142.4537841614
 20
795.1138722516
 30
0.0
 11
1142.4537841614
 21
743.1138722516
 31
0.0
  0
LINE
  5
386
330
1F
100
AcDbEntity
  8
0
  6
Continuous
 62
     7
370
    40
100
AcDbLine
 10
1139.4537841614
 20
792.1138722516
 30
0.0
 11
1139.4537841614
 21
746.1138722516
 31
0.0
  0
SPLINE
  5
387
330
1F
100
AcDbEntity
  8
0
  6
Continuous
 62
     7
370
    40
100
AcDbSpline
210
0.0
220
0.0
230
1.0
 70
     8
 71
     3
 72
    15
 73
    11
 74
     0
 42
0.000000001
 43
0.00000001
 40
0.0
 40
0.0
 40
0.0
 40
0.0
 40
0.1109930852237735
 40
0.2220964410115029
 40
0.3506210581782673
 40
0.4789600204532599
 40
0.6097322554343428
 40
0.7406898392583735
 40
0.8705253193644383
 40
1.0
 40
1.0
 40
1.0
 40
1.0
 10
1355.807974346664
 20
784.1869346210871
 30
0.0
 10
1355.948299777376
 20
784.8850829599202
 30
0.0
 10
1356.229090050766
 20
786.2820732412548
 30
0.0
 10
1357.029108012708
 20
788.3637442941654
 30
0.0
 10
1358.032016912993
 20
790.4176726581397
 30
0.0
 10
1359.262182472242
 20
792.3721915680588
 30
0.0
 10
1360.61465357407
 20
794.0195967194078
 30
0.0
 10
1361.908814504846
 20
795.4000376300903
 30
0.0
 10
1363.0195612926
 20
796.6132462072038
 30
0.0
 10
1363.642665530448
 20
797.076525159632
 30
0.0
 10
1363.953784161386
 20
797.3078423368657
 30
0.0
  0
SPLINE
  5
388
330
1F
100
AcDbEntity
  8
0
  6
Continuous
 62
     7
370
    40
100
AcDbSpline
210
0.0
220
0.0
230
1.0
 70
     8
 71
     3
 72
    15
 73
    11
 74
     0
 42
0.000000001
 43
0.00000001
 40
0.0
 40
0.0
 40
0.0
 40
0.0
 40
0.1069406747334788
 40
0.2140739846220158
 40
0.3533324138197306
 40
0.4924493993344564
 40
0.6282118401219534
 40
0.7642001986063088
 40
0.8821690436046258
 40
1.0
 40
1.0
 40
1.0
 40
1.0
 10
1363.953784161386
 20
740.9199021663745
 30
0.0
 10
1363.699044687712
 20
741.1033205619484
 30
0.0
 10
1363.1891068712
 20
741.4704877496564
 30
0.0
 10
1362.221393186624
 20
742.4877458930247
 30
0.0
 10
1360.992237204179
 20
743.780392430092
 30
0.0
 10
1359.558620581634
 20
745.4537729872661
 30
0.0
 10
1358.220337563828
 20
747.468806105154
 30
0.0
 10
1357.132928003863
 20
749.6211639920427
 30
0.0
 10
1356.262028845209
 20
751.8175973546774
 30
0.0
 10
1355.959266830818
 20
753.3000279998859
 30
0.0
 10
1355.807974346664
 20
754.0408098821534
 30
0.0
  0
SPLINE
  5
389
330
1F
100
AcDbEntity
  8
0
  6
Continuous
 62
     7
370
    40
100
AcDbSpline
210
0.0
220
0.0
230
1.0
 70
     8
 71
     3
 72
    15
 73
    11
 74
     0
 42
0.000000001
 43
0.00000001
 40
0.0
 40
0.0
 40
0.0
 40
0.0
 40
0.1069406747334777
 40
0.214073984622013
 40
0.353332413819723
 40
0.4924493993344433
 40
0.6282118401219396
 40
0.7642001986062933
 40
0.8821690436046185
 40
0.9999999999999999
 40
0.9999999999999999
 40
0.9999999999999999
 40
0.9999999999999999
 10
1249.953784161386
 20
797.3078423368657
 30
0.0
 10
1250.208523635059
 20
797.1244239412919
 30
0.0
 10
1250.718461451571
 20
796.757256753584
 30
0.0
 10
1251.686175136146
 20
795.7399986102158
 30
0.0
 10
1252.915331118592
 20
794.4473520731485
 30
0.0
 10
1254.348947741136
 20
792.7739715159744
 30
0.0
 10
1255.687230758943
 20
790.7589383980866
 30
0.0
 10
1256.774640318908
 20
788.6065805111979
 30
0.0
 10
1257.645539477562
 20
786.410147148563
 30
0.0
 10
1257.948301491953
 20
784.9277165033545
 30
0.0
 10
1258.099593976107
 20
784.186934621087
 30
0.0
  0
SPLINE
  5
38A
330
1F
100
AcDbEntity
  8
0
  6
Continuous
 62
     7
370
    40
100
AcDbSpline
210
0.0
220
0.0
230
1.0
 70
     8
 71
     3
 72
    15
 73
    11
 74
     0
 42
0.000000001
 43
0.00000001
 40
0.0
 40
0.0
 40
0.0
 40
0.0
 40
0.1109930852237767
 40
0.2220964410115085
 40
0.3506210581782719
 40
0.4789600204532632
 40
0.6097322554343467
 40
0.740689839258378
 40
0.8705253193644404
 40
1.0
 40
1.0
 40
1.0
 40
1.0
 10
1258.099593976107
 20
754.0408098821534
 30
0.0
 10
1257.959268545395
 20
753.3426615433201
 30
0.0
 10
1257.678478272005
 20
751.9456712619855
 30
0.0
 10
1256.878460310063
 20
749.8640002090748
 30
0.0
 10
1255.875551409778
 20
747.8100718451007
 30
0.0
 10
1254.645385850529
 20
745.8555529351814
 30
0.0
 10
1253.292914748701
 20
744.2081477838327
 30
0.0
 10
1251.998753817925
 20
742.82770687315
 30
0.0
 10
1250.888007030171
 20
741.6144982960367
 30
0.0
 10
1250.264902792323
 20
741.1512193436084
 30
0.0
 10
1249.953784161386
 20
740.9199021663745
 30
0.0
  0
LINE
  5
38B
330
1F
100
AcDbEntity
  8
0
  6
Continuous
 62
     7
370
    40
100
AcDbLine
 10
1467.9537841614
 20
809.6138722516
 30
0.0
 11
1467.9537841614
 21
728.6138722516
 31
0.0
  0
LINE
  5
38C
330
1F
100
AcDbEntity
  8
0
  6
Continuous
 62
     7
370
    40
100
AcDbLine
 10
1465.9537841614
 20
726.6138722516
 30
0.0
 11
1465.9537841614
 21
811.6138722516
 31
0.0
  0
LINE
  5
38D
330
1F
100
AcDbEntity
  8
0
  6
Continuous
 62
     7
370
    40
100
AcDbLine
 10
1147.9537841614
 20
769.1138722516
 30
0.0
 11
1147.9537841614
 21
726.6138722516
 31
0.0
  0
LINE
  5
38E
330
1F
100
AcDbEntity
  8
0
  6
Continuous
 62
     7
370
    40
100
AcDbLine
 10
1147.9537841614
 20
811.6138722516
 30
0.0
 11
1147.9537841614
 21
769.1138722516
 31
0.0
  0
LINE
  5
38F
330
1F
100
AcDbEntity
  8
0
  6
Continuous
 62
     7
370
    40
100
AcDbLine
 10
1145.9537841614
 20
769.1138722516
 30
0.0
 11
1145.9537841614
 21
809.6138722516
 31
0.0
  0
LINE
  5
390
330
1F
100
AcDbEntity
  8
0
  6
Continuous
 62
     7
370
    40
100
AcDbLine
 10
1145.9537841614
 20
728.6138722516
 30
0.0
 11
1145.9537841614
 21
769.1138722516
 31
0.0
  0
LINE
  5
391
330
1F
100
AcDbEntity
  8
0
  6
Continuous
 62
     7
370
    40
100
AcDbLine
 10
1192.9537841614
 20
851.6138722516
 30
0.0
 11
1191.4748818881
 21
851.6138722516
 31
0.0
  0
LINE
  5
392
330
1F
100
AcDbEntity
  8
0
  6
Continuous
 62
     7
370
    40
100
AcDbLine
 10
1184.9537841614
 20
851.6138722516
 30
0.0
 11
1181.9537841614
 21
851.6138722516
 31
0.0
  0
LINE
  5
393
330
1F
100
AcDbEntity
  8
0
  6
Continuous
 62
     7
370
    40
100
AcDbLine
 10
1192.9537841614
 20
842.6138722516
 30
0.0
 11
1192.9537841614
 21
851.6138722516
 31
0.0
  0
ARC
  5
394
330
1F
100
AcDbEntity
  8
0
  6
Continuous
 62
     7
370
    40
100
AcDbCircle
 10
1198.9537841614
 20
842.6138722516
 30
0.0
 40
6.0
100
AcDbArc
 50
180.0
 51
270.0
  0
LINE
  5
395
330
1F
100
AcDbEntity
  8
0
  6
Continuous
 62
     7
370
    40
100
AcDbLine
 10
1206.9537841614
 20
836.6138722516
 30
0.0
 11
1198.9537841614
 21
836.6138722516
 31
0.0
  0
LINE
  5
396
330
1F
100
AcDbEntity
  8
0
  6
Continuous
 62
     7
370
    40
100
AcDbLine
 10
1206.9537841614
 20
822.6138722516
 30
0.0
 11
1206.9537841614
 21
836.6138722516
 31
0.0
  0
ARC
  5
397
330
1F
100
AcDbEntity
  8
0
  6
Continuous
 62
     7
370
    40
100
AcDbCircle
 10
1200.9537841614
 20
822.6138722516
 30
0.0
 40
6.0
100
AcDbArc
 50
270.0
 51
0.0
  0
LINE
  5
398
330
1F
100
AcDbEntity
  8
0
  6
Continuous
 62
     7
370
    40
100
AcDbLine
 10
1181.9537841614
 20
816.6138722516
 30
0.0
 11
1200.9537841614
 21
816.6138722516
 31
0.0
  0
ARC
  5
399
330
1F
100
AcDbEntity
  8
0
  6
Continuous
 62
     7
370
    40
100
AcDbCircle
 10
1412.9537841614
 20
822.6138722516
 30
0.0
 40
6.0
100
AcDbArc
 50
180.0
 51
270.0
  0
LINE
  5
39A
330
1F
100
AcDbEntity
  8
0
  6
Continuous
 62
     7
370
    40
100
AcDbLine
 10
1406.9537841614
 20
822.6138722516
 30
0.0
 11
1406.9537841614
 21
836.6138722516
 31
0.0
  0
LINE
  5
39B
330
1F
100
AcDbEntity
  8
0
  6
Continuous
 62
     7
370
    40
100
AcDbLine
 10
1406.9537841614
 20
836.6138722516
 30
0.0
 11
1414.9537841614
 21
836.6138722516
 31
0.0
  0
ARC
  5
39C
330
1F
100
AcDbEntity
  8
0
  6
Continuous
 62
     7
370
    40
100
AcDbCircle
 10
1414.9537841614
 20
842.6138722516
 30
0.0
 40
6.0
100
AcDbArc
 50
270.0
 51
0.0
  0
LINE
  5
39D
330
1F
100
AcDbEntity
  8
0
  6
Continuous
 62
     7
370
    40
100
AcDbLine
 10
1420.9537841614
 20
842.6138722516
 30
0.0
 11
1420.9537841614
 21
851.6138722516
 31
0.0
  0
LINE
  5
39E
330
1F
100
AcDbEntity
  8
0
  6
Continuous
 62
     7
370
    40
100
AcDbLine
 10
1420.9537841614
 20
851.6138722516
 30
0.0
 11
1422.4326864347
 21
851.6138722516
 31
0.0
  0
LINE
  5
39F
330
1F
100
AcDbEntity
  8
0
  6
Continuous
 62
     7
370
    40
100
AcDbLine
 10
1428.9537841614
 20
851.6138722516
 30
0.0
 11
1431.9537841614
 21
851.6138722516
 31
0.0
  0
LINE
  5
3A0
330
1F
100
AcDbEntity
  8
0
  6
Continuous
 62
     7
370
    40
100
AcDbLine
 10
1431.9537841614
 20
816.6138722516
 30
0.0
 11
1412.9537841614
 21
816.6138722516
 31
0.0
  0
LINE
  5
3A1
330
1F
100
AcDbEntity
  8
0
  6
Continuous
 62
     7
370
    40
100
AcDbLine
 10
1223.9537841614
 20
946.1138722516
 30
0.0
 11
1201.9537841614
 21
946.1138722516
 31
0.0
  0
LINE
  5
3A2
330
1F
100
AcDbEntity
  8
0
  6
Continuous
 62
     7
370
    40
100
AcDbLine
 10
1229.9537841614
 20
883.0755527442
 30
0.0
 11
1229.9537841614
 21
940.1138722516
 31
0.0
  0
ARC
  5
3A3
330
1F
100
AcDbEntity
  8
0
  6
Continuous
 62
     7
370
    40
100
AcDbCircle
 10
1223.9537841614
 20
883.0755527442
 30
0.0
 40
6.000000000000125
100
AcDbArc
 50
278.0
 51
360.0
  0
CIRCLE
  5
3A4
330
1F
100
AcDbEntity
  8
0
  6
Continuous
 62
     7
370
    40
100
AcDbCircle
 10
1215.9537841614
 20
911.1138722516
 30
0.0
 40
5.5
  0
LINE
  5
3A5
330
1F
100
AcDbEntity
  8
0
  6
Continuous
 62
     7
370
    40
100
AcDbLine
 10
1224.7888227671
 20
877.1339443318
 30
0.0
 11
1201.9537841614
 21
873.9246889457
 31
0.0
  0
ARC
  5
3A6
330
1F
100
AcDbEntity
  8
0
  6
Continuous
 62
     7
370
    40
100
AcDbCircle
 10
1223.9537841614
 20
940.1138722516
 30
0.0
 40
6.0
100
AcDbArc
 50
0.0
 51
90.0
  0
LINE
  5
3A7
330
1F
100
AcDbEntity
  8
0
  6
Continuous
 62
     7
370
    40
100
AcDbLine
 10
1161.9537841614
 20
871.1138722516
 30
0.0
 11
1181.9537841614
 21
871.1138722516
 31
0.0
  0
LINE
  5
3A8
330
1F
100
AcDbEntity
  8
0
  6
Continuous
 62
     7
370
    40
100
AcDbLine
 10
1161.9537841614
 20
871.1138722516
 30
0.0
 11
1161.9537841614
 21
946.1138722516
 31
0.0
  0
LINE
  5
3A9
330
1F
100
AcDbEntity
  8
0
  6
Continuous
 62
     7
370
    40
100
AcDbLine
 10
1201.9537841614
 20
946.1138722516
 30
0.0
 11
1161.9537841614
 21
946.1138722516
 31
0.0
  0
LINE
  5
3AA
330
1F
100
AcDbEntity
  8
0
  6
Continuous
 62
     7
370
    40
100
AcDbLine
 10
1201.9537841614
 20
873.9246889457
 30
0.0
 11
1181.9537841614
 21
871.1138722516
 31
0.0
  0
LINE
  5
3AB
330
1F
100
AcDbEntity
  8
0
  6
Continuous
 62
     7
370
    40
100
AcDbLine
 10
1161.9537841614
 20
946.1138722516
 30
0.0
 11
1161.9537841614
 21
958.1138722516
 31
0.0
  0
LINE
  5
3AC
330
1F
100
AcDbEntity
  8
0
  6
Continuous
 62
     7
370
    40
100
AcDbLine
 10
1181.9537841614
 20
958.1138722516
 30
0.0
 11
1181.9537841614
 21
946.1138722516
 31
0.0
  0
LINE
  5
3AD
330
1F
100
AcDbEntity
  8
0
  6
Continuous
 62
     7
370
    40
100
AcDbLine
 10
1161.9537841614
 20
861.904875844
 30
0.0
 11
1161.9537841614
 21
871.1138722516
 31
0.0
  0
LINE
  5
3AE
330
1F
100
AcDbEntity
  8
0
  6
Continuous
 62
     7
370
    40
100
AcDbLine
 10
1181.9537841614
 20
871.1138722516
 30
0.0
 11
1181.9537841614
 21
861.904875844
 31
0.0
  0
LINE
  5
3AF
330
1F
100
AcDbEntity
  8
0
  6
Continuous
 62
     7
370
    40
100
AcDbLine
 10
1161.9537841614
 20
958.1138722516
 30
0.0
 11
1161.9537841614
 21
959.1138722516
 31
0.0
  0
LINE
  5
3B0
330
1F
100
AcDbEntity
  8
0
  6
Continuous
 62
     7
370
    40
100
AcDbLine
 10
1181.9537841614
 20
959.1138722516
 30
0.0
 11
1181.9537841614
 21
958.1138722516
 31
0.0
  0
LINE
  5
3B1
330
1F
100
AcDbEntity
  8
0
  6
Continuous
 62
     7
370
    40
100
AcDbLine
 10
1181.9537841614
 20
984.1138722516
 30
0.0
 11
1161.9537841614
 21
984.1138722516
 31
0.0
  0
LINE
  5
3B2
330
1F
100
AcDbEntity
  8
0
  6
Continuous
 62
     7
370
    40
100
AcDbLine
 10
1161.9537841614
 20
959.1138722516
 30
0.0
 11
1161.9537841614
 21
984.1138722516
 31
0.0
  0
LINE
  5
3B3
330
1F
100
AcDbEntity
  8
0
  6
Continuous
 62
     7
370
    40
100
AcDbLine
 10
1181.9537841614
 20
984.1138722516
 30
0.0
 11
1181.9537841614
 21
959.1138722516
 31
0.0
  0
LINE
  5
3B4
330
1F
100
AcDbEntity
  8
0
  6
Continuous
 62
     7
370
    40
100
AcDbLine
 10
1161.9537841614
 20
738.5826607559
 30
0.0
 11
1161.9537841614
 21
861.904875844
 31
0.0
  0
LINE
  5
3B5
330
1F
100
AcDbEntity
  8
0
  6
Continuous
 62
     7
370
    40
100
AcDbLine
 10
1181.9537841614
 20
861.904875844
 30
0.0
 11
1181.9537841614
 21
738.5826607559
 31
0.0
  0
LINE
  5
3B6
330
1F
100
AcDbEntity
  8
0
  6
Continuous
 62
     7
370
    40
100
AcDbLine
 10
1161.9537841614
 20
709.1138722516
 30
0.0
 11
1161.9537841614
 21
738.5826607559
 31
0.0
  0
LINE
  5
3B7
330
1F
100
AcDbEntity
  8
0
  6
Continuous
 62
     7
370
    40
100
AcDbLine
 10
1181.9537841614
 20
738.5826607559
 30
0.0
 11
1181.9537841614
 21
709.1138722516
 31
0.0
  0
LINE
  5
3B8
330
1F
100
AcDbEntity
  8
0
  6
Continuous
 62
     7
370
    40
100
AcDbLine
 10
1416.9537841614
 20
850.6138722516
 30
0.0
 11
1416.9537841614
 21
866.6138722516
 31
0.0
  0
LINE
  5
3B9
330
1F
100
AcDbEntity
  8
0
  6
Continuous
 62
     7
370
    40
100
AcDbLine
 10
1196.9537841614
 20
850.6138722516
 30
0.0
 11
1416.9537841614
 21
850.6138722516
 31
0.0
  0
LINE
  5
3BA
330
1F
100
AcDbEntity
  8
0
  6
Continuous
 62
     7
370
    40
100
AcDbLine
 10
1196.9537841614
 20
850.6138722516
 30
0.0
 11
1196.9537841614
 21
866.6138722516
 31
0.0
  0
LINE
  5
3BB
330
1F
100
AcDbEntity
  8
0
  6
Continuous
 62
     7
370
    40
100
AcDbLine
 10
1196.9537841614
 20
866.6138722516
 30
0.0
 11
1284.2037841614
 21
866.6138722516
 31
0.0
  0
ARC
  5
3BC
330
1F
100
AcDbEntity
  8
0
  6
Continuous
 62
     7
370
    40
100
AcDbCircle
 10
1284.2037841614
 20
884.6138722516
 30
0.0
 40
18.0
100
AcDbArc
 50
270.0
 51
0.0
  0
LINE
  5
3BD
330
1F
100
AcDbEntity
  8
0
  6
Continuous
 62
     7
370
    40
100
AcDbLine
 10
1302.2037841614
 20
884.6138722516
 30
0.0
 11
1302.2037841614
 21
1036.6138722516
 31
0.0
  0
ARC
  5
3BE
330
1F
100
AcDbEntity
  8
0
  6
Continuous
 62
     7
370
    40
100
AcDbCircle
 10
1284.2037841614
 20
1036.6138722516
 30
0.0
 40
18.0
100
AcDbArc
 50
0.0
 51
90.0
  0
LINE
  5
3BF
330
1F
100
AcDbEntity
  8
0
  6
Continuous
 62
     7
370
    40
100
AcDbLine
 10
1284.2037841614
 20
1054.6138722516
 30
0.0
 11
1196.9537841614
 21
1054.6138722516
 31
0.0
  0
LINE
  5
3C0
330
1F
100
AcDbEntity
  8
0
  6
Continuous
 62
     7
370
    40
100
AcDbLine
 10
1196.9537841614
 20
1054.6138722516
 30
0.0
 11
1196.9537841614
 21
1070.6138722516
 31
0.0
  0
LINE
  5
3C1
330
1F
100
AcDbEntity
  8
0
  6
Continuous
 62
     7
370
    40
100
AcDbLine
 10
1416.9537841614
 20
1070.6138722516
 30
0.0
 11
1196.9537841614
 21
1070.6138722516
 31
0.0
  0
LINE
  5
3C2
330
1F
100
AcDbEntity
  8
0
  6
Continuous
 62
     7
370
    40
100
AcDbLine
 10
1416.9537841614
 20
1054.6138722516
 30
0.0
 11
1416.9537841614
 21
1070.6138722516
 31
0.0
  0
LINE
  5
3C3
330
1F
100
AcDbEntity
  8
0
  6
Continuous
 62
     7
370
    40
100
AcDbLine
 10
1329.7037841614
 20
1054.6138722516
 30
0.0
 11
1416.9537841614
 21
1054.6138722516
 31
0.0
  0
ARC
  5
3C4
330
1F
100
AcDbEntity
  8
0
  6
Continuous
 62
     7
370
    40
100
AcDbCircle
 10
1329.7037841614
 20
1036.6138722516
 30
0.0
 40
18.0
100
AcDbArc
 50
90.0
 51
180.0
  0
LINE
  5
3C5
330
1F
100
AcDbEntity
  8
0
  6
Continuous
 62
     7
370
    40
100
AcDbLine
 10
1311.7037841614
 20
884.6138722516
 30
0.0
 11
1311.7037841614
 21
1036.6138722516
 31
0.0
  0
ARC
  5
3C6
330
1F
100
AcDbEntity
  8
0
  6
Continuous
 62
     7
370
    40
100
AcDbCircle
 10
1329.7037841614
 20
884.6138722516
 30
0.0
 40
18.0
100
AcDbArc
 50
180.0
 51
270.0
  0
LINE
  5
3C7
330
1F
100
AcDbEntity
  8
0
  6
Continuous
 62
     7
370
    40
100
AcDbLine
 10
1416.9537841614
 20
866.6138722516
 30
0.0
 11
1329.7037841614
 21
866.6138722516
 31
0.0
  0
LINE
  5
3C8
330
1F
100
AcDbEntity
  8
0
  6
Continuous
 62
     8
370
     0
100
AcDbLine
 10
1431.9537841614
 20
738.5826607559
 30
0.0
 11
1451.9537841614
 21
738.5826607559
 31
0.0
  0
LINE
  5
3C9
330
1F
100
AcDbEntity
  8
0
  6
Continuous
 62
     8
370
     0
100
AcDbLine
 10
1389.0037841614
 20
904.6117549384
 30
0.0
 11
1390.7537841614
 21
904.6117549384
 31
0.0
  0
LINE
  5
3CA
330
1F
100
AcDbEntity
  8
0
  6
Continuous
 62
     8
370
     0
100
AcDbLine
 10
1194.3442868051
 20
865.1133610208
 30
0.0
 11
1194.3442868051
 21
872.8552438356
 31
0.0
  0
LINE
  5
3CB
330
1F
100
AcDbEntity
  8
0
  6
Continuous
 62
     8
370
     0
100
AcDbLine
 10
1194.3442868051
 20
946.1138722516
 30
0.0
 11
1194.3442868051
 21
993.1143834825
 31
0.0
  0
LINE
  5
3CC
330
1F
100
AcDbEntity
  8
0
  6
Continuous
 62
     8
370
     0
100
AcDbLine
 10
1197.7676634037
 20
867.449515092
 30
0.0
 11
1197.7676634037
 21
873.3363680402
 31
0.0
  0
LINE
  5
3CD
330
1F
100
AcDbEntity
  8
0
  6
Continuous
 62
     8
370
     0
100
AcDbLine
 10
1197.7676634037
 20
946.1138722516
 30
0.0
 11
1197.7676634037
 21
990.7782294112
 31
0.0
  0
LINE
  5
3CE
330
1F
100
AcDbEntity
  8
0
  6
Continuous
 62
     8
370
     0
100
AcDbLine
 10
1227.9117673547
 20
869.886100836
 30
0.0
 11
1227.9117673547
 21
878.5661881502
 31
0.0
  0
LINE
  5
3CF
330
1F
100
AcDbEntity
  8
0
  6
Continuous
 62
     8
370
     0
100
AcDbLine
 10
1227.9117673547
 20
944.6232368456
 30
0.0
 11
1227.9117673547
 21
988.3416436672
 31
0.0
  0
LINE
  5
3D0
330
1F
100
AcDbEntity
  8
0
  6
Continuous
 62
     8
370
     0
100
AcDbLine
 10
1355.8079743467
 20
784.1869346211
 30
0.0
 11
1363.9537841614
 21
788.9011015121
 31
0.0
  0
LINE
  5
3D1
330
1F
100
AcDbEntity
  8
0
  6
Continuous
 62
     8
370
     0
100
AcDbLine
 10
1355.8079743467
 20
754.0408098822
 30
0.0
 11
1363.9537841614
 21
749.3266429912
 31
0.0
  0
LINE
  5
3D2
330
1F
100
AcDbEntity
  8
0
  6
Continuous
 62
     8
370
     0
100
AcDbLine
 10
1258.0995939761
 20
754.0408098822
 30
0.0
 11
1249.9537841614
 21
749.3266429912
 31
0.0
  0
LINE
  5
3D3
330
1F
100
AcDbEntity
  8
0
  6
Continuous
 62
     8
370
     0
100
AcDbLine
 10
1258.0995939761
 20
784.1869346211
 30
0.0
 11
1249.9537841614
 21
788.9011015121
 31
0.0
  0
LINE
  5
3D4
330
1F
100
AcDbEntity
  8
0
  6
Continuous
 62
     8
370
     0
100
AcDbLine
 10
1336.9537841614
 20
764.1138722516
 30
0.0
 11
1354.9651454875
 21
764.1138722516
 31
0.0
  0
LINE
  5
3D5
330
1F
100
AcDbEntity
  8
0
  6
Continuous
 62
     8
370
     0
100
AcDbLine
 10
1276.9537841614
 20
764.1138722516
 30
0.0
 11
1258.9424228353
 21
764.1138722516
 31
0.0
  0
LINE
  5
3D6
330
1F
100
AcDbEntity
  8
0
  6
Continuous
 62
     8
370
     0
100
AcDbLine
 10
1336.9537841614
 20
774.1138722516
 30
0.0
 11
1354.9651454875
 21
774.1138722516
 31
0.0
  0
LINE
  5
3D7
330
1F
100
AcDbEntity
  8
0
  6
Continuous
 62
     8
370
     0
100
AcDbLine
 10
1276.9537841614
 20
774.1138722516
 30
0.0
 11
1258.9424228353
 21
774.1138722516
 31
0.0
  0
LINE
  5
3D8
330
1F
100
AcDbEntity
  8
0
  6
Continuous
 62
     8
370
     0
100
AcDbLine
 10
1201.9537841614
 20
873.9246889457
 30
0.0
 11
1201.9537841614
 21
946.1138722516
 31
0.0
  0
LINE
  5
3D9
330
1F
100
AcDbEntity
  8
0
  6
Continuous
 62
     8
370
     0
100
AcDbLine
 10
1181.9537841614
 20
958.1138722516
 30
0.0
 11
1161.9537841614
 21
958.1138722516
 31
0.0
  0
LINE
  5
3DA
330
1F
100
AcDbEntity
  8
0
  6
Continuous
 62
     8
370
     0
100
AcDbLine
 10
1181.9537841614
 20
861.904875844
 30
0.0
 11
1161.9537841614
 21
861.904875844
 31
0.0
  0
LINE
  5
3DB
330
1F
100
AcDbEntity
  8
0
  6
Continuous
 62
     8
370
     0
100
AcDbLine
 10
1181.9537841614
 20
959.1138722516
 30
0.0
 11
1161.9537841614
 21
959.1138722516
 31
0.0
  0
LINE
  5
3DC
330
1F
100
AcDbEntity
  8
0
  6
Continuous
 62
     8
370
     0
100
AcDbLine
 10
1181.9537841614
 20
738.5826607559
 30
0.0
 11
1161.9537841614
 21
738.5826607559
 31
0.0
  0
LINE
  5
3DD
330
1F
100
AcDbEntity
  8
SLD-0
100
AcDbLine
 10
1391.2466773802
 20
962.8209790328
 30
0.0
 11
1405.6608909426
 21
949.4067654704
 31
0.0
  0
LINE
  5
3DE
330
1F
100
AcDbEntity
  8
SLD-0
100
AcDbLine
 10
1391.2466773802
 20
908.8209790328
 30
0.0
 11
1405.6608909426
 21
895.4067654704
 31
0.0
  0
LINE
  5
3DF
330
1F
100
AcDbEntity
  8
SLD-0
100
AcDbLine
 10
1405.6608909426
 20
962.8209790328
 30
0.0
 11
1391.2466773802
 21
949.4067654704
 31
0.0
  0
LINE
  5
3E0
330
1F
100
AcDbEntity
  8
SLD-0
100
AcDbLine
 10
1420.6608909426
 20
962.8209790328
 30
0.0
 11
1406.2466773802
 21
949.4067654704
 31
0.0
  0
LINE
  5
3E1
330
1F
100
AcDbEntity
  8
SLD-0
100
AcDbLine
 10
1405.6608909426
 20
908.8209790328
 30
0.0
 11
1391.2466773802
 21
895.4067654704
 31
0.0
  0
LINE
  5
3E2
330
1F
100
AcDbEntity
  8
SLD-0
100
AcDbLine
 10
1420.6608909426
 20
949.4067654704
 30
0.0
 11
1406.2466773802
 21
962.8209790328
 31
0.0
  0
LINE
  5
3E3
330
1F
100
AcDbEntity
  8
SLD-0
100
AcDbLine
 10
1420.6608909426
 20
908.8209790328
 30
0.0
 11
1406.2466773802
 21
895.4067654704
 31
0.0
  0
LINE
  5
3E4
330
1F
100
AcDbEntity
  8
SLD-0
100
AcDbLine
 10
1420.6608909426
 20
895.4067654704
 30
0.0
 11
1406.2466773802
 21
908.8209790328
 31
0.0
  0
HATCH
  5
3E5
330
1F
100
AcDbEntity
  8
0
  6
Continuous
 62
     7
370
     0
100
AcDbHatch
 10
0.0
 20
0.0
 30
0.0
210
0.0
220
0.0
230
1.0
  2
ANSI31
 70
     0
 71
     0
 91
        1
 92
        0
 93
        4
 72
     1
 10
1451.953784161384
 20
984.1138722516203
 11
1431.953784161384
 21
984.1138722516203
 72
     1
 10
1431.953784161384
 20
984.1138722516203
 11
1431.953784161384
 21
951.6138722516203
 72
     1
 10
1431.953784161384
 20
951.6138722516203
 11
1451.953784161384
 21
951.6138722516203
 72
     1
 10
1451.953784161384
 20
951.6138722516203
 11
1451.953784161384
 21
984.1138722516203
 97
        0
 75
     0
 76
     1
 52
0.0
 41
2.0
 77
     0
 78
     1
 53
45.0
 43
0.0
 44
0.0
 45
-4.490128060534576
 46
4.490128060534577
 79
     0
 98
        1
 10
0.0
 20
0.0
  0
HATCH
  5
3E6
330
1F
100
AcDbEntity
  8
0
  6
Continuous
 62
     7
370
     0
100
AcDbHatch
 10
0.0
 20
0.0
 30
0.0
210
0.0
220
0.0
230
1.0
  2
ANSI31
 70
     0
 71
     0
 91
        1
 92
        0
 93
        4
 72
     1
 10
1451.953784141862
 20
843.6982914131204
 11
1451.953784161384
 21
906.6138722516203
 72
     1
 10
1451.953784161384
 20
906.6138722516203
 11
1431.953784161384
 21
906.6138722516203
 72
     1
 10
1431.953784161384
 20
906.6138722516203
 11
1431.953784153943
 21
842.6337720640499
 72
     4
 94
        3
 73
     1
 74
     0
 95
        9
 96
        5
 40
0.2653809080052832
 40
0.2653809080052832
 40
0.2653809080052832
 40
0.2653809080052832
 40
0.2824599480782847
 40
0.3057808404027823
 40
0.3057808404027823
 40
0.3057808404027823
 40
0.3057808404027823
 10
1431.953784153943
 20
842.6337720640499
 42
1.0
 10
1434.568686108048
 20
843.1376037594807
 42
1.0
 10
1440.90782601195
 20
844.2095772854192
 42
1.0
 10
1448.226220755968
 20
843.5141293963511
 42
1.0
 10
1451.953784141862
 20
843.6982914131204
 42
1.0
 97
        0
 97
        0
 75
     0
 76
     1
 52
0.0
 41
2.0
 77
     0
 78
     1
 53
45.0
 43
0.0
 44
0.0
 45
-4.490128060534576
 46
4.490128060534577
 79
     0
 98
        1
 10
0.0
 20
0.0
  0
HATCH
  5
3E7
330
1F
100
AcDbEntity
  8
0
  6
Continuous
 62
     7
370
     0
100
AcDbHatch
 10
0.0
 20
0.0
 30
0.0
210
0.0
220
0.0
230
1.0
  2
ANSI31
 70
     0
 71
     0
 91
        1
 92
        0
 93
        3
 72
     1
 10
1451.953784161383
 20
843.6982914140848
 11
1451.953784141862
 21
843.6982914131204
 72
     4
 94
        3
 73
     1
 74
     0
 95
        9
 96
        5
 40
0.6942191595972177
 40
0.6942191595972177
 40
0.6942191595972177
 40
0.6942191595972177
 40
0.7175400519217153
 40
0.7346190919947169
 40
0.7346190919947169
 40
0.7346190919947169
 40
0.7346190919947169
 10
1451.953784141862
 20
843.6982914131204
 42
1.0
 10
1448.226220755968
 20
843.514129396351
 42
1.0
 10
1440.90782601195
 20
844.2095772854192
 42
1.0
 10
1434.568686108048
 20
843.1376037594807
 42
1.0
 10
1431.953784153943
 20
842.6337720640499
 42
1.0
 97
        0
 72
     4
 94
        3
 73
     1
 74
     0
 95
       11
 96
        7
 40
0.0
 40
0.0
 40
0.0
 40
0.0
 40
0.0150255173642533
 40
0.0150255173642533
 40
0.0150255173642533
 40
0.0200264781172173
 40
0.0200264781172173
 40
0.0200264781172173
 40
0.0200264781172173
 10
1431.953784161384
 20
842.6337720654836
 42
1.0
 10
1436.81442314566
 20
843.570305833374
 42
1.0
 10
1441.911321977796
 20
843.8208380093077
 42
1.0
 10
1446.91709697077
 20
843.6926336541311
 42
1.0
 10
1448.595079075546
 20
843.6496583677783
 42
1.0
 10
1450.278285481336
 20
843.6155126152725
 42
1.0
 10
1451.953784161383
 20
843.6982914140848
 42
1.0
 97
        0
 97
        0
 75
     0
 76
     1
 52
0.0
 41
2.0
 77
     0
 78
     1
 53
45.0
 43
0.0
 44
0.0
 45
-4.490128060534576
 46
4.490128060534577
 79
     0
 98
        1
 10
0.0
 20
0.0
  0
HATCH
  5
3E8
330
1F
100
AcDbEntity
  8
0
  6
Continuous
 62
     7
370
     0
100
AcDbHatch
 10
0.0
 20
0.0
 30
0.0
210
0.0
220
0.0
230
1.0
  2
ANSI32
 70
     0
 71
     0
 91
        1
 92
        0
 93
       29
 72
     1
 10
1420.953784161383
 20
951.6138722516203
 11
1420.953784161383
 21
950.1138722516204
 72
     2
 10
1419.953784161383
 20
950.1138722516204
 40
1.000000000000001
 50
0.0
 51
90.0
 73
     0
 72
     1
 10
1419.953784161383
 20
949.1138722516204
 11
1390.753784161383
 21
949.1138722516204
 72
     1
 10
1390.753784161383
 20
949.1138722516204
 11
1390.753784161383
 21
947.8638722516203
 72
     1
 10
1390.753784161383
 20
947.8638722516203
 11
1388.903784161383
 21
947.8638722516203
 72
     1
 10
1388.903784161383
 20
947.8638722516203
 11
1388.903784161383
 21
949.1138722516204
 72
     1
 10
1388.903784161383
 20
949.1138722516204
 11
1384.953784161383
 21
949.1138722516204
 72
     1
 10
1384.953784161383
 20
949.1138722516204
 11
1384.453784161383
 21
948.6138722516203
 72
     1
 10
1384.453784161383
 20
948.6138722516203
 11
1384.453784161383
 21
931.2388722516203
 72
     1
 10
1384.453784161383
 20
931.2388722516203
 11
1386.402341319898
 21
930.1138722516204
 72
     1
 10
1386.402341319898
 20
930.1138722516204
 11
1387.576433892193
 21
930.1138722516204
 72
     1
 10
1387.576433892193
 20
930.1138722516204
 11
1388.153784161383
 21
929.1138722516204
 72
     1
 10
1388.153784161383
 20
929.1138722516204
 11
1387.576433892193
 21
928.1138722516204
 72
     1
 10
1387.576433892193
 20
928.1138722516204
 11
1386.402341319898
 21
928.1138722516204
 72
     1
 10
1386.402341319898
 20
928.1138722516204
 11
1384.453784161383
 21
926.9888722516203
 72
     1
 10
1384.453784161383
 20
926.9888722516203
 11
1384.453784161383
 21
909.6138722516203
 72
     1
 10
1384.453784161383
 20
909.6138722516203
 11
1384.953784161383
 21
909.1138722516204
 72
     1
 10
1384.953784161383
 20
909.1138722516204
 11
1388.903784161383
 21
909.1138722516204
 72
     1
 10
1388.903784161383
 20
909.1138722516204
 11
1388.903784161383
 21
910.3638722516203
 72
     1
 10
1388.903784161383
 20
910.3638722516203
 11
1390.753784161383
 21
910.3638722516203
 72
     1
 10
1390.753784161383
 20
910.3638722516203
 11
1390.753784161383
 21
909.1138722516204
 72
     1
 10
1390.753784161383
 20
909.1138722516204
 11
1419.953784161383
 21
909.1138722516204
 72
     2
 10
1419.953784161383
 20
908.1138722516204
 40
1.000000000000001
 50
270.0000000000008
 51
360.0000000000008
 73
     0
 72
     1
 10
1420.953784161383
 20
908.1138722516204
 11
1420.953784161383
 21
906.6138722516203
 72
     1
 10
1420.953784161383
 20
906.6138722516203
 11
1451.453784161383
 21
906.6138722516203
 72
     1
 10
1451.453784161383
 20
906.6138722516203
 11
1451.953784161383
 21
907.1138722516204
 72
     1
 10
1451.953784161383
 20
907.1138722516204
 11
1451.953784161383
 21
951.1138722516204
 72
     1
 10
1451.953784161383
 20
951.1138722516204
 11
1451.453784161383
 21
951.6138722516203
 72
     1
 10
1451.453784161383
 20
951.6138722516203
 11
1420.953784161383
 21
951.6138722516203
 97
        0
 75
     0
 76
     1
 52
90.0
 41
2.0
 77
     0
 78
     2
 53
135.0000000000002
 43
0.0
 44
0.0
 45
-13.47038418160369
 46
-13.47038418160378
 79
     0
 53
135.0000000000002
 43
-0.0000000000000314
 44
8.98026
 45
-13.47038418160369
 46
-13.47038418160378
 79
     0
 98
        1
 10
0.0
 20
0.0
  0
HATCH
  5
3E9
330
1F
100
AcDbEntity
  8
0
  6
Continuous
 62
     7
370
     0
100
AcDbHatch
 10
0.0
 20
0.0
 30
0.0
210
0.0
220
0.0
230
1.0
  2
ANSI32
 70
     0
 71
     0
 91
        1
 92
        0
 93
       26
 72
     2
 10
1405.953784161383
 20
929.1138722516204
 40
62.5
 50
80.6202114714935
 51
108.6222737908696
 73
     1
 72
     2
 10
1386.953784161383
 20
985.4987106392579
 40
3.000000000000009
 50
108.622273790872
 51
180.0
 73
     1
 72
     1
 10
1383.953784161383
 20
985.4987106392579
 11
1383.953784161383
 21
958.6138722516204
 72
     1
 10
1383.953784161383
 20
958.6138722516204
 11
1384.453784161383
 21
958.1138722516203
 72
     1
 10
1384.453784161383
 20
958.1138722516203
 11
1384.953784161383
 21
958.1138722516203
 72
     1
 10
1384.953784161383
 20
958.1138722516203
 11
1384.953784161383
 21
959.6138722516204
 72
     1
 10
1384.953784161383
 20
959.6138722516204
 11
1387.153784161383
 21
959.6138722516204
 72
     1
 10
1387.153784161383
 20
959.6138722516204
 11
1387.153784161383
 21
958.1138722516204
 72
     1
 10
1387.153784161383
 20
958.1138722516204
 11
1387.953784161383
 21
958.1138722516203
 72
     1
 10
1387.953784161383
 20
958.1138722516203
 11
1387.953784161383
 21
957.1138722516204
 72
     1
 10
1387.953784161383
 20
957.1138722516204
 11
1390.953784161383
 21
957.1138722516203
 72
     1
 10
1390.953784161383
 20
957.1138722516203
 11
1390.953784161383
 21
963.4138722516203
 72
     1
 10
1390.953784161383
 20
963.4138722516203
 11
1393.953784161383
 21
963.4138722516203
 72
     1
 10
1393.953784161383
 20
963.4138722516203
 11
1393.953784161383
 21
963.1138722516204
 72
     1
 10
1393.953784161383
 20
963.1138722516204
 11
1421.953784161383
 21
963.1138722516204
 72
     1
 10
1421.953784161383
 20
963.1138722516204
 11
1421.953784161383
 21
964.6138722516204
 72
     1
 10
1421.953784161383
 20
964.6138722516204
 11
1424.653784161383
 21
964.6138722516204
 72
     1
 10
1424.653784161383
 20
964.6138722516204
 11
1424.653784161383
 21
963.1138722516204
 72
     1
 10
1424.653784161383
 20
963.1138722516204
 11
1427.953784161383
 21
963.1138722516204
 72
     1
 10
1427.953784161383
 20
963.1138722516204
 11
1428.953784161383
 21
964.1138722516204
 72
     1
 10
1428.953784161383
 20
964.1138722516204
 11
1428.953784161383
 21
1008.81387225162
 72
     1
 10
1428.953784161383
 20
1008.81387225162
 11
1428.653784161383
 21
1009.11387225162
 72
     1
 10
1428.653784161383
 20
1009.11387225162
 11
1423.207013048849
 21
1009.11387225162
 72
     1
 10
1423.207013048849
 20
1009.11387225162
 11
1422.913568768629
 21
1008.876245758866
 72
     1
 10
1422.913568768629
 20
1008.876245758866
 11
1419.563281517639
 21
993.1143834824545
 72
     2
 10
1416.628838715437
 20
993.7381185549078
 40
3.000000000000003
 50
11.99999999999994
 51
99.37978852850559
 73
     0
 97
        0
 75
     0
 76
     1
 52
0.0
 41
2.0
 77
     0
 78
     2
 53
45.0
 43
0.0
 44
0.0
 45
-13.47038418160373
 46
13.47038418160373
 79
     0
 53
45.0
 43
8.98026
 44
0.0
 45
-13.47038418160373
 46
13.47038418160373
 79
     0
 98
        1
 10
0.0
 20
0.0
  0
HATCH
  5
3EA
330
1F
100
AcDbEntity
  8
0
  6
Continuous
 62
     7
370
     0
100
AcDbHatch
 10
0.0
 20
0.0
 30
0.0
210
0.0
220
0.0
230
1.0
  2
ANSI32
 70
     0
 71
     0
 91
        1
 92
        0
 93
       26
 72
     1
 10
1419.563281517639
 20
865.1133610207861
 11
1422.913568768629
 21
849.351498744375
 72
     1
 10
1422.913568768629
 20
849.351498744375
 11
1423.207013048849
 21
849.1138722516203
 72
     1
 10
1423.207013048849
 20
849.1138722516203
 11
1428.653784161383
 21
849.1138722516203
 72
     1
 10
1428.653784161383
 20
849.1138722516203
 11
1428.953784161383
 21
849.4138722516202
 72
     1
 10
1428.953784161383
 20
849.4138722516202
 11
1428.953784161383
 21
894.1138722516204
 72
     1
 10
1428.953784161383
 20
894.1138722516204
 11
1427.953784161383
 21
895.1138722516204
 72
     1
 10
1427.953784161383
 20
895.1138722516204
 11
1424.653784161383
 21
895.1138722516204
 72
     1
 10
1424.653784161383
 20
895.1138722516204
 11
1424.653784161383
 21
893.6138722516203
 72
     1
 10
1424.653784161383
 20
893.6138722516203
 11
1421.953784161383
 21
893.6138722516203
 72
     1
 10
1421.953784161383
 20
893.6138722516203
 11
1421.953784161383
 21
895.1138722516204
 72
     1
 10
1421.953784161383
 20
895.1138722516204
 11
1393.953784161383
 21
895.1138722516204
 72
     1
 10
1393.953784161383
 20
895.1138722516204
 11
1393.953784161383
 21
894.8138722516203
 72
     1
 10
1393.953784161383
 20
894.8138722516203
 11
1390.953784161383
 21
894.8138722516202
 72
     1
 10
1390.953784161383
 20
894.8138722516202
 11
1390.953784161383
 21
901.1138722516204
 72
     1
 10
1390.953784161383
 20
901.1138722516204
 11
1387.953784161383
 21
901.1138722516204
 72
     1
 10
1387.953784161383
 20
901.1138722516204
 11
1387.953784161383
 21
900.1138722516204
 72
     1
 10
1387.953784161383
 20
900.1138722516204
 11
1387.153784161383
 21
900.1138722516204
 72
     1
 10
1387.153784161383
 20
900.1138722516204
 11
1387.153784161383
 21
898.6138722516203
 72
     1
 10
1387.153784161383
 20
898.6138722516203
 11
1384.953784161383
 21
898.6138722516203
 72
     1
 10
1384.953784161383
 20
898.6138722516203
 11
1384.953784161383
 21
900.1138722516204
 72
     1
 10
1384.953784161383
 20
900.1138722516204
 11
1384.453784161383
 21
900.1138722516204
 72
     1
 10
1384.453784161383
 20
900.1138722516204
 11
1383.953784161383
 21
899.6138722516203
 72
     1
 10
1383.953784161383
 20
899.6138722516203
 11
1383.953784161383
 21
872.7290338639829
 72
     2
 10
1386.953784161383
 20
872.7290338639829
 40
3.000000000000009
 50
180.0
 51
251.3777262091301
 73
     1
 72
     2
 10
1405.953784161383
 20
929.1138722516204
 40
62.5
 50
251.3777262091313
 51
279.3797885285073
 73
     1
 72
     2
 10
1416.628838715437
 20
864.4896259483329
 40
3.000000000000003
 50
260.6202114714945
 51
348.000000000003
 73
     0
 97
        0
 75
     0
 76
     1
 52
0.0
 41
2.0
 77
     0
 78
     2
 53
45.0
 43
0.0
 44
0.0
 45
-13.47038418160373
 46
13.47038418160373
 79
     0
 53
45.0
 43
8.98026
 44
0.0
 45
-13.47038418160373
 46
13.47038418160373
 79
     0
 98
        1
 10
0.0
 20
0.0
  0
DIMENSION
  5
3EB
330
1F
100
AcDbEntity
  8
SLD-0
100
AcDbDimension
280
     0
  2
_D_2
 10
1196.9537841614
 20
1102.6138722516
 30
0.0
 11
1306.3527602763
 21
1102.6138722516
 31
0.0
 70
   160
  1
min. 90 / max. <>
 71
     2
 42
-1.0
 73
     0
 74
     0
 75
     0
  3
SLDDIMSTYLE0
100
AcDbAlignedDimension
 13
1416.9537841614
 23
1070.6138722516
 33
0.0
 14
1196.9537841614
 24
1070.6138722516
 34
0.0
100
AcDbRotatedDimension
  0
DIMENSION
  5
3F6
330
1F
100
AcDbEntity
  8
SLD-0
100
AcDbDimension
280
     0
  2
_D_3
 10
1467.2928109959
 20
1054.6138722516
 30
0.0
 11
1467.2928109959
 21
1102.6138722516
 31
0.0
 70
   160
  1
max. 25
 71
     2
 42
-1.0
 73
     0
 74
     0
 75
     0
  3
SLDDIMSTYLE2
100
AcDbAlignedDimension
 13
1416.9537841614
 23
1070.6138722516
 33
0.0
 14
1416.9537841614
 24
1054.6138722516
 34
0.0
 50
90.0
100
AcDbRotatedDimension
  0
DIMENSION
  5
403
330
1F
100
AcDbEntity
  8
SLD-0
100
AcDbDimension
280
     0
  2
_D_4
 10
1336.9537841614
 20
669.1138722516
 30
0.0
 11
1358.1713935067
 21
669.1138722516
 31
0.0
 70
   160
  1
<>
 71
     2
 42
-1.0
 73
     0
 74
     0
 75
     0
  3
SLDDIMSTYLE2
100
AcDbAlignedDimension
 13
1276.9537841614
 23
764.1138722516
 33
0.0
 14
1336.9537841614
 24
764.1138722516
 34
0.0
100
AcDbRotatedDimension
  0
DIMENSION
  5
40F
330
1F
100
AcDbEntity
  8
SLD-0
100
AcDbDimension
280
     0
  2
_D_5
 10
1386.4884970768
 20
734.1138722516
 30
0.0
 11
1386.4884970768
 21
822.6387151062
 31
0.0
 70
   160
  1
<>
 71
     2
 42
-1.0
 73
     0
 74
     0
 75
     0
  3
SLDDIMSTYLE2
100
AcDbAlignedDimension
 13
1306.9537841614
 23
804.1138722516
 33
0.0
 14
1306.9537841614
 24
734.1138722516
 34
0.0
 50
90.0
100
AcDbRotatedDimension
  0
DIMENSION
  5
41B
330
1F
100
AcDbEntity
  8
SLD-0
100
AcDbDimension
280
     0
  2
_D_6
 10
1256.6434961815
 20
991.3626963293
 30
0.0
 11
1256.3745106809
 21
939.3938644481
 31
0.0
 70
   160
  1
%%c<>
 71
     2
 42
-1.0
 73
     0
 74
     0
 75
     0
  3
SLDDIMSTYLE0
100
AcDbAlignedDimension
 13
1207.6302947161
 23
866.6147094206
 33
0.0
 14
1208.2772736067
 24
991.6130350826
 34
0.0
 50
89.703445397
100
AcDbRotatedDimension
  0
DIMENSION
  5
426
330
1F
100
AcDbEntity
  8
SLD-0
100
AcDbDimension
280
     0
  2
_D_7
 10
1276.75144953
 20
866.6138722516
 30
0.0
 11
1276.75144953
 21
939.9784256628
 31
0.0
 70
   160
  1
<>
 71
     2
 42
-1.0
 73
     0
 74
     0
 75
     0
  3
SLDDIMSTYLE0
100
AcDbAlignedDimension
 13
1190.7005552739
 23
1009.1138722516
 33
0.0
 14
1284.2037841614
 24
866.6138722516
 34
0.0
 50
90.0
100
AcDbRotatedDimension
  0
DIMENSION
  5
42F
330
1F
100
AcDbEntity
  8
SLD-0
100
AcDbDimension
280
     0
  2
_D_8
 10
1498.4537841614
 20
836.6138722516
 30
0.0
 11
1498.4537841614
 21
852.1947182093
 31
0.0
 70
   160
  1
<>
 71
     2
 42
-1.0
 73
     0
 74
     0
 75
     0
  3
SLDDIMSTYLE0
100
AcDbAlignedDimension
 13
1416.9537841614
 23
866.6138722516
 33
0.0
 14
1414.9537841614
 24
836.6138722516
 34
0.0
 50
90.0
100
AcDbRotatedDimension
  0
DIMENSION
  5
439
330
1F
100
AcDbEntity
  8
SLD-0
100
AcDbDimension
280
     0
  2
_D_9
 10
1522.4537841614
 20
734.1138722516
 30
0.0
 11
1522.4537841614
 21
802.5544100056
 31
0.0
 70
   160
  1
<>
 71
     2
 42
-1.0
 73
     0
 74
     0
 75
     0
  3
SLDDIMSTYLE0
100
AcDbAlignedDimension
 13
1416.9537841614
 23
866.6138722516
 33
0.0
 14
1306.9537841614
 24
734.1138722516
 34
0.0
 50
90.0
100
AcDbRotatedDimension
  0
DIMENSION
  5
443
330
1F
100
AcDbEntity
  8
SLD-0
100
AcDbDimension
280
     0
  2
_D_10
 10
1474.4537841614
 20
645.1138722516
 30
0.0
 11
1392.8565178342
 21
645.1138722516
 31
0.0
 70
   160
  1
<>
 71
     2
 42
-1.0
 73
     0
 74
     0
 75
     0
  3
SLDDIMSTYLE0
100
AcDbAlignedDimension
 13
1306.9537841614
 23
693.4862472684
 33
0.0
 14
1474.4537841614
 24
746.1138722516
 34
0.0
100
AcDbRotatedDimension
  0
DIMENSION
  5
44D
330
1F
100
AcDbEntity
  8
SLD-0
100
AcDbDimension
280
     0
  2
_D_11
 10
1431.9537841614
 20
1126.6138722516
 30
0.0
 11
1306.3527602763
 21
1126.6138722516
 31
0.0
 70
   160
  1
min. 120 / max. <>
 71
     2
 42
-1.0
 73
     0
 74
     0
 75
     0
  3
SLDDIMSTYLE0
100
AcDbAlignedDimension
 13
1181.9537841614
 23
984.1138722516
 33
0.0
 14
1431.9537841614
 24
984.1138722516
 34
0.0
100
AcDbRotatedDimension
  0
MTEXT
  5
458
330
1F
100
AcDbEntity
  8
0
  6
Continuous
 62
     7
370
     0
100
AcDbMText
 10
1353.6286207796
 20
975.9944405017
 30
0.0
 40
14.0
 41
0.0
 46
0.0
 71
     2
 72
     1
  1
6
  7
SLDTEXTSTYLE1
 73
     1
 44
1.0
  0
LEADER
  5
459
330
1F
100
AcDbEntity
  8
0
  6
Continuous
 62
     7
370
     0
100
AcDbLeader
  3
SLDDIMSTYLE1
 76
     2
 10
1389.7443114003
 20
949.8398020058
 30
0.0
 10
1359.8235294118
 20
958.0882352941
 30
0.0
  0
MTEXT
  5
45A
330
1F
100
AcDbEntity
  8
0
  6
Continuous
 62
     7
370
     0
100
AcDbMText
 10
1353.6286207796
 20
919.8448691347
 30
0.0
 40
14.0
 41
0.0
 46
0.0
 71
     2
 72
     1
  1
5
  7
SLDTEXTSTYLE1
 73
     1
 44
1.0
  0
LEADER
  5
45B
330
1F
100
AcDbEntity
  8
0
  6
Continuous
 62
     7
370
     0
100
AcDbLeader
  3
SLDDIMSTYLE1
 76
     2
 10
1395.6656686312
 20
901.4950629179
 30
0.0
 10
1359.8235294118
 20
910.9068627451
 30
0.0
  0
MTEXT
  5
45C
330
1F
100
AcDbEntity
  8
0
  6
Continuous
 62
     7
370
     0
100
AcDbMText
 10
1373.5758926081
 20
1028.684059767
 30
0.0
 40
14.0
 41
0.0
 46
0.0
 71
     2
 72
     1
  1
7
  7
SLDTEXTSTYLE1
 73
     1
 44
1.0
  0
LEADER
  5
45D
330
1F
100
AcDbEntity
  8
0
  6
Continuous
 62
     7
370
     0
100
AcDbLeader
  3
SLDDIMSTYLE1
 76
     2
 10
1422.8806837835
 20
961.415276702
 30
0.0
 10
1379.6764705882
 20
1010.7843137255
 30
0.0
  0
MTEXT
  5
45E
330
1F
100
AcDbEntity
  8
0
  6
Continuous
 62
     7
370
     0
100
AcDbMText
 10
1132.7179364077
 20
675.4329888618
 30
0.0
 40
14.0
 41
0.0
 46
0.0
 71
     2
 72
     1
  1
1
  7
SLDTEXTSTYLE1
 73
     1
 44
1.0
  0
LEADER
  5
45F
330
1F
100
AcDbEntity
  8
0
  6
Continuous
 62
     7
370
     0
100
AcDbLeader
  3
SLDDIMSTYLE1
 76
     2
 10
1173.0520199181
 20
720.4767215746
 30
0.0
 10
1138.9901960784
 20
675.4901960784
 30
0.0
  0
MTEXT
  5
460
330
1F
100
AcDbEntity
  8
0
  6
Continuous
 62
     7
370
     0
100
AcDbMText
 10
1418.4645965588
 20
682.8939070619
 30
0.0
 40
14.0
 41
0.0
 46
0.0
 71
     2
 72
     1
  1
2
  7
SLDTEXTSTYLE1
 73
     1
 44
1.0
  0
LEADER
  5
461
330
1F
100
AcDbEntity
  8
0
  6
Continuous
 62
     7
370
     0
100
AcDbLeader
  3
SLDDIMSTYLE1
 76
     2
 10
1442.6191664442
 20
717.8909769718
 30
0.0
 10
1424.7745098039
 20
683.0882352941
 30
0.0
  0
MTEXT
  5
462
330
1F
100
AcDbEntity
  8
0
  6
Continuous
 62
     7
370
     0
100
AcDbMText
 10
1216.3741412347
 20
682.8939070619
 30
0.0
 40
14.0
 41
0.0
 46
0.0
 71
     2
 72
     1
  1
3
  7
SLDTEXTSTYLE1
 73
     1
 44
1.0
  0
LEADER
  5
463
330
1F
100
AcDbEntity
  8
0
  6
Continuous
 62
     7
370
     0
100
AcDbLeader
  3
SLDDIMSTYLE1
 76
     2
 10
1265.2098092712
 20
729.0859634241
 30
0.0
 10
1222.568627451
 20
683.0882352941
 30
0.0
  0
MTEXT
  5
464
330
1F
100
AcDbEntity
  8
SLD-0
 62
     7
100
AcDbMText
 10
1234.0803689923
 20
1040.3615745427
 30
0.0
 40
14.0
 41
0.0
 46
0.0
 71
     2
 72
     1
  1
4
  7
SLDTEXTSTYLE1
 73
     1
 44
1.0
  0
LEADER
  5
465
330
1F
100
AcDbEntity
  8
SLD-0
 62
     7
100
AcDbLeader
  3
SLDDIMSTYLE1
 76
     2
 10
1207.1337126567
 20
980.7036240336
 30
0.0
 10
1227.9215686275
 20
1022.3039215686
 30
0.0
  0
INSERT
  5
471
330
1F
100
AcDbEntity
  8
SLD-0
100
AcDbBlockReference
  2
SW_CENTERMARKSYMBOL_7
 10
1215.9537841614
 20
911.1138722516
 30
0.0
  0
LINE
  5
472
330
1F
100
AcDbEntity
  8
0
  6
CENTERX2
 62
     7
370
     0
100
AcDbLine
 10
1127.4955392779
 20
769.1138722516
 30
0.0
 11
1490.1282492681
 21
769.1138722516
 31
0.0
  0
LINE
  5
473
330
1F
100
AcDbEntity
  8
0
  6
CENTERX2
 62
     7
370
     0
100
AcDbLine
 10
1306.9537841614
 20
693.4862472684
 30
0.0
 11
1306.9537841614
 21
1057.553845315
 31
0.0
  0
ARC
  5
474
330
1F
100
AcDbEntity
  8
0
  6
Continuous
 62
     7
370
    40
100
AcDbCircle
 10
432.439238656
 20
192.106038609
 30
0.0
 40
2.777777777777771
100
AcDbArc
 50
200.6096929375
 51
270.0
  0
ARC
  5
475
330
1F
100
AcDbEntity
  8
0
  6
Continuous
 62
     7
370
    40
100
AcDbCircle
 10
432.439238656
 20
192.106038609
 30
0.0
 40
2.777777777777771
100
AcDbArc
 50
270.0
 51
339.3903070625
  0
LINE
  5
476
330
1F
100
AcDbEntity
  8
0
  6
Continuous
 62
     7
370
    40
100
AcDbLine
 10
429.839238656
 20
191.2282608312
 30
0.0
 11
429.839238656
 21
191.1282608312
 31
0.0
  0
LINE
  5
477
330
1F
100
AcDbEntity
  8
0
  6
Continuous
 62
     7
370
    40
100
AcDbLine
 10
435.039238656
 20
191.1282608312
 30
0.0
 11
435.039238656
 21
191.2282608312
 31
0.0
  0
LINE
  5
478
330
1F
100
AcDbEntity
  8
0
  6
Continuous
 62
     7
370
    40
100
AcDbLine
 10
362.839238656
 20
191.2282608312
 30
0.0
 11
362.839238656
 21
191.1282608312
 31
0.0
  0
LINE
  5
479
330
1F
100
AcDbEntity
  8
0
  6
Continuous
 62
     7
370
    40
100
AcDbLine
 10
368.039238656
 20
191.1282608312
 30
0.0
 11
368.039238656
 21
191.2282608312
 31
0.0
  0
ARC
  5
47A
330
1F
100
AcDbEntity
  8
0
  6
Continuous
 62
     7
370
    40
100
AcDbCircle
 10
365.439238656
 20
192.106038609
 30
0.0
 40
2.777777777777793
100
AcDbArc
 50
200.6096929375
 51
270.0
  0
ARC
  5
47B
330
1F
100
AcDbEntity
  8
0
  6
Continuous
 62
     7
370
    40
100
AcDbCircle
 10
365.439238656
 20
192.106038609
 30
0.0
 40
2.777777777777771
100
AcDbArc
 50
270.0
 51
339.3903070625
  0
LINE
  5
47C
330
1F
100
AcDbEntity
  8
0
  6
Continuous
 62
     7
370
    40
100
AcDbLine
 10
214.439238656
 20
458.4282608312
 30
0.0
 11
214.439238656
 21
452.9814897187
 31
0.0
  0
LINE
  5
47D
330
1F
100
AcDbEntity
  8
0
  6
Continuous
 62
     7
370
    40
100
AcDbLine
 10
374.439238656
 20
452.9814897187
 30
0.0
 11
374.439238656
 21
458.4282608312
 31
0.0
  0
LINE
  5
47E
330
1F
100
AcDbEntity
  8
0
  6
Continuous
 62
     7
370
    40
100
AcDbLine
 10
214.439238656
 20
452.9814897187
 30
0.0
 11
214.6768651487
 21
452.6880454384
 31
0.0
  0
LINE
  5
47F
330
1F
100
AcDbEntity
  8
0
  6
Continuous
 62
     7
370
    40
100
AcDbLine
 10
374.2016121632
 20
452.6880454384
 30
0.0
 11
374.439238656
 21
452.9814897187
 31
0.0
  0
LINE
  5
480
330
1F
100
AcDbEntity
  8
0
  6
Continuous
 62
     7
370
    40
100
AcDbLine
 10
374.439238656
 20
458.4282608312
 30
0.0
 11
374.139238656
 21
458.7282608312
 31
0.0
  0
LINE
  5
481
330
1F
100
AcDbEntity
  8
0
  6
Continuous
 62
     7
370
    40
100
AcDbLine
 10
214.739238656
 20
458.7282608312
 30
0.0
 11
214.439238656
 21
458.4282608312
 31
0.0
  0
LINE
  5
482
330
1F
100
AcDbEntity
  8
0
  6
Continuous
 62
     7
370
    40
100
AcDbLine
 10
214.6768651487
 20
452.6880454384
 30
0.0
 11
230.4387274252
 21
449.3377581875
 31
0.0
  0
LINE
  5
483
330
1F
100
AcDbEntity
  8
0
  6
Continuous
 62
     7
370
    40
100
AcDbLine
 10
358.4397498868
 20
449.3377581875
 30
0.0
 11
374.2016121632
 21
452.6880454384
 31
0.0
  0
ARC
  5
484
330
1F
100
AcDbEntity
  8
0
  6
Continuous
 62
     7
370
    40
100
AcDbCircle
 10
229.8149923527
 20
446.4033153853
 30
0.0
 40
2.999999999999998
100
AcDbArc
 50
350.6202114715
 51
78.0
  0
ARC
  5
485
330
1F
100
AcDbEntity
  8
0
  6
Continuous
 62
     7
370
    40
100
AcDbCircle
 10
359.0634849593
 20
446.4033153853
 30
0.0
 40
2.999999999999982
100
AcDbArc
 50
102.0
 51
189.3797885285
  0
ARC
  5
486
330
1F
100
AcDbEntity
  8
0
  6
Continuous
 62
     7
370
    40
100
AcDbCircle
 10
294.439238656
 20
435.7282608312
 30
0.0
 40
62.50000000000006
100
AcDbArc
 50
170.6202114715
 51
180.0
  0
ARC
  5
487
330
1F
100
AcDbEntity
  8
0
  6
Continuous
 62
     7
370
    40
100
AcDbCircle
 10
294.439238656
 20
435.7282608312
 30
0.0
 40
62.50000000000004
100
AcDbArc
 50
341.3777262091
 51
9.3797885285
  0
ARC
  5
488
330
1F
100
AcDbEntity
  8
0
  6
Continuous
 62
     7
370
    40
100
AcDbCircle
 10
294.439238656
 20
435.7282608312
 30
0.0
 40
62.50000000000004
100
AcDbArc
 50
180.0
 51
198.6222737909
  0
ARC
  5
489
330
1F
100
AcDbEntity
  8
0
  6
Continuous
 62
     7
370
    40
100
AcDbCircle
 10
238.0544002684
 20
416.7282608312
 30
0.0
 40
3.000000000000021
100
AcDbArc
 50
198.6222737909
 51
270.0
  0
ARC
  5
48A
330
1F
100
AcDbEntity
  8
0
  6
Continuous
 62
     7
370
    40
100
AcDbCircle
 10
350.8240770436
 20
416.7282608312
 30
0.0
 40
3.000000000000066
100
AcDbArc
 50
270.0
 51
341.3777262091
  0
LINE
  5
48B
330
1F
100
AcDbEntity
  8
0
  6
Continuous
 62
     7
370
    40
100
AcDbLine
 10
423.439238656
 20
458.4282608312
 30
0.0
 11
423.439238656
 21
452.9814897187
 31
0.0
  0
LINE
  5
48C
330
1F
100
AcDbEntity
  8
0
  6
Continuous
 62
     7
370
    40
100
AcDbLine
 10
583.439238656
 20
452.9814897187
 30
0.0
 11
583.439238656
 21
458.4282608312
 31
0.0
  0
LINE
  5
48D
330
1F
100
AcDbEntity
  8
0
  6
Continuous
 62
     7
370
    40
100
AcDbLine
 10
583.439238656
 20
458.4282608312
 30
0.0
 11
583.139238656
 21
458.7282608312
 31
0.0
  0
LINE
  5
48E
330
1F
100
AcDbEntity
  8
0
  6
Continuous
 62
     7
370
    40
100
AcDbLine
 10
423.739238656
 20
458.7282608312
 30
0.0
 11
423.439238656
 21
458.4282608312
 31
0.0
  0
LINE
  5
48F
330
1F
100
AcDbEntity
  8
0
  6
Continuous
 62
     7
370
    40
100
AcDbLine
 10
423.439238656
 20
452.9814897187
 30
0.0
 11
423.6768651487
 21
452.6880454384
 31
0.0
  0
LINE
  5
490
330
1F
100
AcDbEntity
  8
0
  6
Continuous
 62
     7
370
    40
100
AcDbLine
 10
583.2016121632
 20
452.6880454384
 30
0.0
 11
583.439238656
 21
452.9814897187
 31
0.0
  0
LINE
  5
491
330
1F
100
AcDbEntity
  8
0
  6
Continuous
 62
     7
370
    40
100
AcDbLine
 10
423.6768651487
 20
452.6880454384
 30
0.0
 11
439.4387274252
 21
449.3377581875
 31
0.0
  0
LINE
  5
492
330
1F
100
AcDbEntity
  8
0
  6
Continuous
 62
     7
370
    40
100
AcDbLine
 10
567.4397498868
 20
449.3377581875
 30
0.0
 11
583.2016121632
 21
452.6880454384
 31
0.0
  0
ARC
  5
493
330
1F
100
AcDbEntity
  8
0
  6
Continuous
 62
     7
370
    40
100
AcDbCircle
 10
438.8149923527
 20
446.4033153853
 30
0.0
 40
3.000000000000038
100
AcDbArc
 50
350.6202114715
 51
78.0
  0
ARC
  5
494
330
1F
100
AcDbEntity
  8
0
  6
Continuous
 62
     7
370
    40
100
AcDbCircle
 10
568.0634849593
 20
446.4033153853
 30
0.0
 40
2.999999999999926
100
AcDbArc
 50
102.0
 51
189.3797885285
  0
ARC
  5
495
330
1F
100
AcDbEntity
  8
0
  6
Continuous
 62
     7
370
    40
100
AcDbCircle
 10
503.439238656
 20
435.7282608312
 30
0.0
 40
62.50000000000009
100
AcDbArc
 50
170.6202114715
 51
180.0
  0
ARC
  5
496
330
1F
100
AcDbEntity
  8
0
  6
Continuous
 62
     7
370
    40
100
AcDbCircle
 10
503.439238656
 20
435.7282608312
 30
0.0
 40
62.50000000000004
100
AcDbArc
 50
341.3777262091
 51
9.3797885285
  0
ARC
  5
497
330
1F
100
AcDbEntity
  8
0
  6
Continuous
 62
     7
370
    40
100
AcDbCircle
 10
503.439238656
 20
435.7282608312
 30
0.0
 40
62.50000000000011
100
AcDbArc
 50
180.0
 51
198.6222737909
  0
ARC
  5
498
330
1F
100
AcDbEntity
  8
0
  6
Continuous
 62
     7
370
    40
100
AcDbCircle
 10
447.0544002684
 20
416.7282608312
 30
0.0
 40
3.000000000000048
100
AcDbArc
 50
198.6222737909
 51
270.0
  0
ARC
  5
499
330
1F
100
AcDbEntity
  8
0
  6
Continuous
 62
     7
370
    40
100
AcDbCircle
 10
559.8240770436
 20
416.7282608312
 30
0.0
 40
3.0
100
AcDbArc
 50
270.0
 51
341.3777262091
  0
LINE
  5
49A
330
1F
100
AcDbEntity
  8
0
  6
Continuous
 62
     7
370
    40
100
AcDbLine
 10
374.439238656
 20
215.0282608312
 30
0.0
 11
374.439238656
 21
220.4750319437
 31
0.0
  0
LINE
  5
49B
330
1F
100
AcDbEntity
  8
0
  6
Continuous
 62
     7
370
    40
100
AcDbLine
 10
214.439238656
 20
220.4750319437
 30
0.0
 11
214.439238656
 21
215.0282608312
 31
0.0
  0
LINE
  5
49C
330
1F
100
AcDbEntity
  8
0
  6
Continuous
 62
     7
370
    40
100
AcDbLine
 10
214.439238656
 20
215.0282608312
 30
0.0
 11
214.739238656
 21
214.7282608312
 31
0.0
  0
LINE
  5
49D
330
1F
100
AcDbEntity
  8
0
  6
Continuous
 62
     7
370
    40
100
AcDbLine
 10
374.139238656
 20
214.7282608312
 30
0.0
 11
374.439238656
 21
215.0282608312
 31
0.0
  0
LINE
  5
49E
330
1F
100
AcDbEntity
  8
0
  6
Continuous
 62
     7
370
    40
100
AcDbLine
 10
374.439238656
 20
220.4750319437
 30
0.0
 11
374.2016121632
 21
220.768476224
 31
0.0
  0
LINE
  5
49F
330
1F
100
AcDbEntity
  8
0
  6
Continuous
 62
     7
370
    40
100
AcDbLine
 10
214.6768651487
 20
220.768476224
 30
0.0
 11
214.439238656
 21
220.4750319437
 31
0.0
  0
LINE
  5
4A0
330
1F
100
AcDbEntity
  8
0
  6
Continuous
 62
     7
370
    40
100
AcDbLine
 10
374.2016121632
 20
220.768476224
 30
0.0
 11
358.4397498868
 21
224.1187634749
 31
0.0
  0
LINE
  5
4A1
330
1F
100
AcDbEntity
  8
0
  6
Continuous
 62
     7
370
    40
100
AcDbLine
 10
230.4387274252
 20
224.1187634749
 30
0.0
 11
214.6768651487
 21
220.768476224
 31
0.0
  0
ARC
  5
4A2
330
1F
100
AcDbEntity
  8
0
  6
Continuous
 62
     7
370
    40
100
AcDbCircle
 10
359.0634849593
 20
227.0532062771
 30
0.0
 40
2.99999999999997
100
AcDbArc
 50
170.6202114715
 51
258.0
  0
ARC
  5
4A3
330
1F
100
AcDbEntity
  8
0
  6
Continuous
 62
     7
370
    40
100
AcDbCircle
 10
229.8149923527
 20
227.0532062771
 30
0.0
 40
2.999999999999982
100
AcDbArc
 50
282.0
 51
9.3797885285
  0
ARC
  5
4A4
330
1F
100
AcDbEntity
  8
0
  6
Continuous
 62
     7
370
    40
100
AcDbCircle
 10
294.439238656
 20
237.7282608312
 30
0.0
 40
62.50000000000006
100
AcDbArc
 50
350.6202114715
 51
18.6222737909
  0
ARC
  5
4A5
330
1F
100
AcDbEntity
  8
0
  6
Continuous
 62
     7
370
    40
100
AcDbCircle
 10
294.439238656
 20
237.7282608312
 30
0.0
 40
62.50000000000009
100
AcDbArc
 50
161.3777262091
 51
189.3797885285
  0
ARC
  5
4A6
330
1F
100
AcDbEntity
  8
0
  6
Continuous
 62
     7
370
    40
100
AcDbCircle
 10
350.8240770436
 20
256.7282608312
 30
0.0
 40
3.000000000000066
100
AcDbArc
 50
18.6222737909
 51
90.0
  0
ARC
  5
4A7
330
1F
100
AcDbEntity
  8
0
  6
Continuous
 62
     7
370
    40
100
AcDbCircle
 10
238.0544002684
 20
256.7282608312
 30
0.0
 40
3.000000000000066
100
AcDbArc
 50
90.0
 51
161.3777262091
  0
LINE
  5
4A8
330
1F
100
AcDbEntity
  8
0
  6
Continuous
 62
     7
370
    40
100
AcDbLine
 10
583.439238656
 20
215.0282608312
 30
0.0
 11
583.439238656
 21
220.4750319437
 31
0.0
  0
LINE
  5
4A9
330
1F
100
AcDbEntity
  8
0
  6
Continuous
 62
     7
370
    40
100
AcDbLine
 10
423.439238656
 20
220.4750319437
 30
0.0
 11
423.439238656
 21
215.0282608312
 31
0.0
  0
LINE
  5
4AA
330
1F
100
AcDbEntity
  8
0
  6
Continuous
 62
     7
370
    40
100
AcDbLine
 10
423.439238656
 20
215.0282608312
 30
0.0
 11
423.739238656
 21
214.7282608312
 31
0.0
  0
LINE
  5
4AB
330
1F
100
AcDbEntity
  8
0
  6
Continuous
 62
     7
370
    40
100
AcDbLine
 10
583.139238656
 20
214.7282608312
 30
0.0
 11
583.439238656
 21
215.0282608312
 31
0.0
  0
LINE
  5
4AC
330
1F
100
AcDbEntity
  8
0
  6
Continuous
 62
     7
370
    40
100
AcDbLine
 10
583.439238656
 20
220.4750319437
 30
0.0
 11
583.2016121632
 21
220.768476224
 31
0.0
  0
LINE
  5
4AD
330
1F
100
AcDbEntity
  8
0
  6
Continuous
 62
     7
370
    40
100
AcDbLine
 10
423.6768651487
 20
220.768476224
 30
0.0
 11
423.439238656
 21
220.4750319437
 31
0.0
  0
LINE
  5
4AE
330
1F
100
AcDbEntity
  8
0
  6
Continuous
 62
     7
370
    40
100
AcDbLine
 10
583.2016121632
 20
220.768476224
 30
0.0
 11
567.4397498868
 21
224.1187634749
 31
0.0
  0
LINE
  5
4AF
330
1F
100
AcDbEntity
  8
0
  6
Continuous
 62
     7
370
    40
100
AcDbLine
 10
439.4387274252
 20
224.1187634749
 30
0.0
 11
423.6768651487
 21
220.768476224
 31
0.0
  0
ARC
  5
4B0
330
1F
100
AcDbEntity
  8
0
  6
Continuous
 62
     7
370
    40
100
AcDbCircle
 10
568.0634849593
 20
227.0532062771
 30
0.0
 40
2.999999999999998
100
AcDbArc
 50
170.6202114715
 51
258.0
  0
ARC
  5
4B1
330
1F
100
AcDbEntity
  8
0
  6
Continuous
 62
     7
370
    40
100
AcDbCircle
 10
438.8149923527
 20
227.0532062771
 30
0.0
 40
2.999999999999982
100
AcDbArc
 50
282.0
 51
9.3797885285
  0
ARC
  5
4B2
330
1F
100
AcDbEntity
  8
0
  6
Continuous
 62
     7
370
    40
100
AcDbCircle
 10
503.439238656
 20
237.7282608312
 30
0.0
 40
62.50000000000004
100
AcDbArc
 50
350.6202114715
 51
18.6222737909
  0
ARC
  5
4B3
330
1F
100
AcDbEntity
  8
0
  6
Continuous
 62
     7
370
    40
100
AcDbCircle
 10
503.439238656
 20
237.7282608312
 30
0.0
 40
62.50000000000006
100
AcDbArc
 50
161.3777262091
 51
189.3797885285
  0
ARC
  5
4B4
330
1F
100
AcDbEntity
  8
0
  6
Continuous
 62
     7
370
    40
100
AcDbCircle
 10
559.8240770436
 20
256.7282608312
 30
0.0
 40
3.0
100
AcDbArc
 50
18.6222737909
 51
90.0
  0
ARC
  5
4B5
330
1F
100
AcDbEntity
  8
0
  6
Continuous
 62
     7
370
    40
100
AcDbCircle
 10
447.0544002684
 20
256.7282608312
 30
0.0
 40
3.000000000000066
100
AcDbArc
 50
90.0
 51
161.3777262091
  0
LINE
  5
4B6
330
1F
100
AcDbEntity
  8
0
  6
Continuous
 62
     7
370
    40
100
AcDbLine
 10
415.439238656
 20
290.2282608312
 30
0.0
 11
415.439238656
 21
383.2282608312
 31
0.0
  0
LINE
  5
4B7
330
1F
100
AcDbEntity
  8
0
  6
Continuous
 62
     7
370
    40
100
AcDbLine
 10
382.439238656
 20
383.2282608312
 30
0.0
 11
382.439238656
 21
290.2282608312
 31
0.0
  0
ARC
  5
4B8
330
1F
100
AcDbEntity
  8
0
  6
Continuous
 62
     7
370
    40
100
AcDbCircle
 10
427.939238656
 20
399.2282608312
 30
0.0
 40
3.5
100
AcDbArc
 50
180.0
 51
270.0
  0
ARC
  5
4B9
330
1F
100
AcDbEntity
  8
0
  6
Continuous
 62
     7
370
    40
100
AcDbCircle
 10
369.939238656
 20
399.2282608312
 30
0.0
 40
3.5
100
AcDbArc
 50
270.0
 51
0.0
  0
LINE
  5
4BA
330
1F
100
AcDbEntity
  8
0
  6
Continuous
 62
     7
370
    40
100
AcDbLine
 10
427.939238656
 20
393.7282608312
 30
0.0
 11
427.939238656
 21
395.7282608312
 31
0.0
  0
LINE
  5
4BB
330
1F
100
AcDbEntity
  8
0
  6
Continuous
 62
     7
370
    40
100
AcDbLine
 10
369.939238656
 20
395.7282608312
 30
0.0
 11
369.939238656
 21
393.7282608312
 31
0.0
  0
ARC
  5
4BC
330
1F
100
AcDbEntity
  8
0
  6
Continuous
 62
     7
370
    40
100
AcDbCircle
 10
369.939238656
 20
274.2282608312
 30
0.0
 40
3.5
100
AcDbArc
 50
0.0
 51
90.0
  0
ARC
  5
4BD
330
1F
100
AcDbEntity
  8
0
  6
Continuous
 62
     7
370
    40
100
AcDbCircle
 10
427.939238656
 20
274.2282608312
 30
0.0
 40
3.5
100
AcDbArc
 50
90.0
 51
180.0
  0
LINE
  5
4BE
330
1F
100
AcDbEntity
  8
0
  6
Continuous
 62
     7
370
    40
100
AcDbLine
 10
369.939238656
 20
279.7282608312
 30
0.0
 11
369.939238656
 21
277.7282608312
 31
0.0
  0
LINE
  5
4BF
330
1F
100
AcDbEntity
  8
0
  6
Continuous
 62
     7
370
    40
100
AcDbLine
 10
427.939238656
 20
277.7282608312
 30
0.0
 11
427.939238656
 21
279.7282608312
 31
0.0
  0
LINE
  5
4C0
330
1F
100
AcDbEntity
  8
0
  6
Continuous
 62
     7
370
    40
100
AcDbLine
 10
424.939238656
 20
400.094286235
 30
0.0
 11
424.939238656
 21
452.4197196662
 31
0.0
  0
LINE
  5
4C1
330
1F
100
AcDbEntity
  8
0
  6
Continuous
 62
     7
370
    40
100
AcDbLine
 10
424.939238656
 20
458.7282608312
 30
0.0
 11
424.939238656
 21
461.7282608312
 31
0.0
  0
LINE
  5
4C2
330
1F
100
AcDbEntity
  8
0
  6
Continuous
 62
     7
370
    40
100
AcDbLine
 10
424.939238656
 20
497.7282608312
 30
0.0
 11
424.939238656
 21
501.2282608312
 31
0.0
  0
LINE
  5
4C3
330
1F
100
AcDbEntity
  8
0
  6
Continuous
 62
     7
370
    40
100
AcDbLine
 10
372.939238656
 20
501.2282608312
 30
0.0
 11
372.939238656
 21
497.7282608312
 31
0.0
  0
LINE
  5
4C4
330
1F
100
AcDbEntity
  8
0
  6
Continuous
 62
     7
370
    40
100
AcDbLine
 10
372.939238656
 20
461.7282608312
 30
0.0
 11
372.939238656
 21
458.7282608312
 31
0.0
  0
LINE
  5
4C5
330
1F
100
AcDbEntity
  8
0
  6
Continuous
 62
     7
370
    40
100
AcDbLine
 10
372.939238656
 20
452.4197196662
 30
0.0
 11
372.939238656
 21
400.094286235
 31
0.0
  0
LINE
  5
4C6
330
1F
100
AcDbEntity
  8
0
  6
Continuous
 62
     7
370
    40
100
AcDbLine
 10
424.939238656
 20
501.2282608312
 30
0.0
 11
421.939238656
 21
504.2282608312
 31
0.0
  0
LINE
  5
4C7
330
1F
100
AcDbEntity
  8
0
  6
Continuous
 62
     7
370
    40
100
AcDbLine
 10
375.939238656
 20
504.2282608312
 30
0.0
 11
372.939238656
 21
501.2282608312
 31
0.0
  0
LINE
  5
4C8
330
1F
100
AcDbEntity
  8
0
  6
Continuous
 62
     7
370
    40
100
AcDbLine
 10
372.939238656
 20
400.094286235
 30
0.0
 11
373.439238656
 21
399.2282608312
 31
0.0
  0
LINE
  5
4C9
330
1F
100
AcDbEntity
  8
0
  6
Continuous
 62
     7
370
    40
100
AcDbLine
 10
424.439238656
 20
399.2282608312
 30
0.0
 11
424.939238656
 21
400.094286235
 31
0.0
  0
LINE
  5
4CA
330
1F
100
AcDbEntity
  8
0
  6
Continuous
 62
     7
370
    40
100
AcDbLine
 10
372.939238656
 20
273.3622354274
 30
0.0
 11
372.939238656
 21
221.0368019962
 31
0.0
  0
LINE
  5
4CB
330
1F
100
AcDbEntity
  8
0
  6
Continuous
 62
     7
370
    40
100
AcDbLine
 10
372.939238656
 20
214.7282608312
 30
0.0
 11
372.939238656
 21
211.7282608312
 31
0.0
  0
LINE
  5
4CC
330
1F
100
AcDbEntity
  8
0
  6
Continuous
 62
     7
370
    40
100
AcDbLine
 10
372.939238656
 20
175.7282608312
 30
0.0
 11
372.939238656
 21
172.2282608312
 31
0.0
  0
LINE
  5
4CD
330
1F
100
AcDbEntity
  8
0
  6
Continuous
 62
     7
370
    40
100
AcDbLine
 10
424.939238656
 20
172.2282608312
 30
0.0
 11
424.939238656
 21
175.7282608312
 31
0.0
  0
LINE
  5
4CE
330
1F
100
AcDbEntity
  8
0
  6
Continuous
 62
     7
370
    40
100
AcDbLine
 10
424.939238656
 20
211.7282608312
 30
0.0
 11
424.939238656
 21
214.7282608312
 31
0.0
  0
LINE
  5
4CF
330
1F
100
AcDbEntity
  8
0
  6
Continuous
 62
     7
370
    40
100
AcDbLine
 10
424.939238656
 20
221.0368019962
 30
0.0
 11
424.939238656
 21
273.3622354274
 31
0.0
  0
LINE
  5
4D0
330
1F
100
AcDbEntity
  8
0
  6
Continuous
 62
     7
370
    40
100
AcDbLine
 10
424.939238656
 20
273.3622354274
 30
0.0
 11
424.439238656
 21
274.2282608312
 31
0.0
  0
LINE
  5
4D1
330
1F
100
AcDbEntity
  8
0
  6
Continuous
 62
     7
370
    40
100
AcDbLine
 10
373.439238656
 20
274.2282608312
 30
0.0
 11
372.939238656
 21
273.3622354274
 31
0.0
  0
LINE
  5
4D2
330
1F
100
AcDbEntity
  8
0
  6
Continuous
 62
     7
370
    40
100
AcDbLine
 10
372.939238656
 20
172.2282608312
 30
0.0
 11
375.939238656
 21
169.2282608312
 31
0.0
  0
LINE
  5
4D3
330
1F
100
AcDbEntity
  8
0
  6
Continuous
 62
     7
370
    40
100
AcDbLine
 10
421.939238656
 20
169.2282608312
 30
0.0
 11
424.939238656
 21
172.2282608312
 31
0.0
  0
SPLINE
  5
4D4
330
1F
100
AcDbEntity
  8
0
  6
Continuous
 62
     7
370
    40
100
AcDbSpline
210
0.0
220
0.0
230
1.0
 70
     8
 71
     3
 72
    10
 73
     6
 74
     0
 42
0.000000001
 43
0.00000001
 40
0.0
 40
0.0
 40
0.0
 40
0.0
 40
0.3768905919016698
 40
0.7060073100540698
 40
1.0
 40
1.0
 40
1.0
 40
1.0
 10
369.9392386559927
 20
393.7282608311996
 30
0.0
 10
371.5109918118079
 20
392.5634157509809
 30
0.0
 10
374.4552659365797
 20
390.381378949358
 30
0.0
 10
378.6991030248238
 20
387.3923944103042
 30
0.0
 10
381.3254594176679
 20
385.5048867179726
 30
0.0
 10
382.564615127169
 20
384.6143312929539
 30
0.0
  0
SPLINE
  5
4D5
330
1F
100
AcDbEntity
  8
0
  6
Continuous
 62
     7
370
    40
100
AcDbSpline
210
0.0
220
0.0
230
1.0
 70
     8
 71
     3
 72
    10
 73
     6
 74
     0
 42
0.000000001
 43
0.00000001
 40
0.0
 40
0.0
 40
0.0
 40
0.0
 40
0.2939926899459301
 40
0.6231094080983295
 40
1.0
 40
1.0
 40
1.0
 40
1.0
 10
415.3138621848165
 20
384.6143312929539
 30
0.0
 10
416.5530178943176
 20
385.5048867179726
 30
0.0
 10
419.1793742871617
 20
387.3923944103042
 30
0.0
 10
423.4232113754058
 20
390.381378949358
 30
0.0
 10
426.3674855001777
 20
392.5634157509809
 30
0.0
 10
427.9392386559928
 20
393.7282608311996
 30
0.0
  0
SPLINE
  5
4D6
330
1F
100
AcDbEntity
  8
0
  6
Continuous
 62
     7
370
    40
100
AcDbSpline
210
0.0
220
0.0
230
1.0
 70
     8
 71
     3
 72
    10
 73
     6
 74
     0
 42
0.000000001
 43
0.00000001
 40
0.0
 40
0.0
 40
0.0
 40
0.0
 40
0.2939926899459299
 40
0.6231094080983299
 40
1.0
 40
1.0
 40
1.0
 40
1.0
 10
382.564615127169
 20
288.8421903694452
 30
0.0
 10
381.3254594176679
 20
287.9516349444265
 30
0.0
 10
378.6991030248238
 20
286.064127252095
 30
0.0
 10
374.4552659365797
 20
283.0751427130411
 30
0.0
 10
371.5109918118079
 20
280.8931059114183
 30
0.0
 10
369.9392386559927
 20
279.7282608311996
 30
0.0
  0
SPLINE
  5
4D7
330
1F
100
AcDbEntity
  8
0
  6
Continuous
 62
     7
370
    40
100
AcDbSpline
210
0.0
220
0.0
230
1.0
 70
     8
 71
     3
 72
    10
 73
     6
 74
     0
 42
0.000000001
 43
0.00000001
 40
0.0
 40
0.0
 40
0.0
 40
0.0
 40
0.37689059190167
 40
0.7060073100540699
 40
0.9999999999999999
 40
0.9999999999999999
 40
0.9999999999999999
 40
0.9999999999999999
 10
427.9392386559928
 20
279.7282608311996
 30
0.0
 10
426.3674855001777
 20
280.8931059114183
 30
0.0
 10
423.4232113754058
 20
283.0751427130411
 30
0.0
 10
419.1793742871617
 20
286.064127252095
 30
0.0
 10
416.5530178943176
 20
287.9516349444265
 30
0.0
 10
415.3138621848165
 20
288.8421903694452
 30
0.0
  0
LINE
  5
4D8
330
1F
100
AcDbEntity
  8
0
  6
Continuous
 62
     7
370
    40
100
AcDbLine
 10
356.439238656
 20
191.7282608312
 30
0.0
 11
356.439238656
 21
177.7282608312
 31
0.0
  0
LINE
  5
4D9
330
1F
100
AcDbEntity
  8
0
  6
Continuous
 62
     7
370
    40
100
AcDbLine
 10
441.439238656
 20
177.7282608312
 30
0.0
 11
441.439238656
 21
191.7282608312
 31
0.0
  0
LINE
  5
4DA
330
1F
100
AcDbEntity
  8
0
  6
Continuous
 62
     7
370
    40
100
AcDbLine
 10
356.439238656
 20
177.7282608312
 30
0.0
 11
358.439238656
 21
175.7282608312
 31
0.0
  0
LINE
  5
4DB
330
1F
100
AcDbEntity
  8
0
  6
Continuous
 62
     7
370
    40
100
AcDbLine
 10
439.439238656
 20
175.7282608312
 30
0.0
 11
441.439238656
 21
177.7282608312
 31
0.0
  0
LINE
  5
4DC
330
1F
100
AcDbEntity
  8
0
  6
Continuous
 62
     7
370
    40
100
AcDbLine
 10
441.439238656
 20
495.7282608312
 30
0.0
 11
439.439238656
 21
497.7282608312
 31
0.0
  0
LINE
  5
4DD
330
1F
100
AcDbEntity
  8
0
  6
Continuous
 62
     7
370
    40
100
AcDbLine
 10
358.439238656
 20
497.7282608312
 30
0.0
 11
356.439238656
 21
495.7282608312
 31
0.0
  0
LINE
  5
4DE
330
1F
100
AcDbEntity
  8
0
  6
Continuous
 62
     7
370
    40
100
AcDbLine
 10
441.439238656
 20
481.7282608312
 30
0.0
 11
441.439238656
 21
495.7282608312
 31
0.0
  0
LINE
  5
4DF
330
1F
100
AcDbEntity
  8
0
  6
Continuous
 62
     7
370
    40
100
AcDbLine
 10
356.439238656
 20
495.7282608312
 30
0.0
 11
356.439238656
 21
481.7282608312
 31
0.0
  0
LINE
  5
4E0
330
1F
100
AcDbEntity
  8
0
  6
Continuous
 62
     7
370
    40
100
AcDbLine
 10
271.939238656
 20
461.7282608312
 30
0.0
 11
271.939238656
 21
458.7282608312
 31
0.0
  0
LINE
  5
4E1
330
1F
100
AcDbEntity
  8
0
  6
Continuous
 62
     7
370
    40
100
AcDbLine
 10
316.939238656
 20
458.7282608312
 30
0.0
 11
316.939238656
 21
461.7282608312
 31
0.0
  0
LINE
  5
4E2
330
1F
100
AcDbEntity
  8
0
  6
Continuous
 62
     7
370
    40
100
AcDbLine
 10
316.939238656
 20
211.7282608312
 30
0.0
 11
316.939238656
 21
214.7282608312
 31
0.0
  0
LINE
  5
4E3
330
1F
100
AcDbEntity
  8
0
  6
Continuous
 62
     7
370
    40
100
AcDbLine
 10
271.939238656
 20
214.7282608312
 30
0.0
 11
271.939238656
 21
211.7282608312
 31
0.0
  0
LINE
  5
4E4
330
1F
100
AcDbEntity
  8
0
  6
Continuous
 62
     7
370
    40
100
AcDbLine
 10
525.939238656
 20
211.7282608312
 30
0.0
 11
525.939238656
 21
214.7282608312
 31
0.0
  0
LINE
  5
4E5
330
1F
100
AcDbEntity
  8
0
  6
Continuous
 62
     7
370
    40
100
AcDbLine
 10
480.939238656
 20
214.7282608312
 30
0.0
 11
480.939238656
 21
211.7282608312
 31
0.0
  0
LINE
  5
4E6
330
1F
100
AcDbEntity
  8
0
  6
Continuous
 62
     7
370
    40
100
AcDbLine
 10
480.939238656
 20
461.7282608312
 30
0.0
 11
480.939238656
 21
458.7282608312
 31
0.0
  0
LINE
  5
4E7
330
1F
100
AcDbEntity
  8
0
  6
Continuous
 62
     7
370
    40
100
AcDbLine
 10
525.939238656
 20
458.7282608312
 30
0.0
 11
525.939238656
 21
461.7282608312
 31
0.0
  0
LINE
  5
4E8
330
1F
100
AcDbEntity
  8
0
  6
Continuous
 62
     7
370
    40
100
AcDbLine
 10
435.039238656
 20
191.1282608312
 30
0.0
 11
429.839238656
 21
191.1282608312
 31
0.0
  0
LINE
  5
4E9
330
1F
100
AcDbEntity
  8
0
  6
Continuous
 62
     7
370
    40
100
AcDbLine
 10
368.039238656
 20
191.1282608312
 30
0.0
 11
362.839238656
 21
191.1282608312
 31
0.0
  0
LINE
  5
4EA
330
1F
100
AcDbEntity
  8
0
  6
Continuous
 62
     7
370
    40
100
AcDbLine
 10
361.439238656
 20
191.7282608312
 30
0.0
 11
361.439238656
 21
191.2282608312
 31
0.0
  0
LINE
  5
4EB
330
1F
100
AcDbEntity
  8
0
  6
Continuous
 62
     7
370
    40
100
AcDbLine
 10
436.439238656
 20
191.2282608312
 30
0.0
 11
361.439238656
 21
191.2282608312
 31
0.0
  0
LINE
  5
4EC
330
1F
100
AcDbEntity
  8
0
  6
Continuous
 62
     7
370
    40
100
AcDbLine
 10
436.439238656
 20
191.7282608312
 30
0.0
 11
436.439238656
 21
191.2282608312
 31
0.0
  0
LINE
  5
4ED
330
1F
100
AcDbEntity
  8
0
  6
Continuous
 62
     7
370
    40
100
AcDbLine
 10
343.2746140916
 20
458.4282608312
 30
0.0
 11
214.439238656
 21
458.4282608312
 31
0.0
  0
LINE
  5
4EE
330
1F
100
AcDbEntity
  8
0
  6
Continuous
 62
     7
370
    40
100
AcDbLine
 10
374.439238656
 20
458.4282608312
 30
0.0
 11
343.2746140916
 21
458.4282608312
 31
0.0
  0
LINE
  5
4EF
330
1F
100
AcDbEntity
  8
0
  6
Continuous
 62
     7
370
    40
100
AcDbLine
 10
214.439238656
 20
452.9814897187
 30
0.0
 11
374.439238656
 21
452.9814897187
 31
0.0
  0
LINE
  5
4F0
330
1F
100
AcDbEntity
  8
0
  6
Continuous
 62
     7
370
    40
100
AcDbLine
 10
343.1295568543
 20
452.6880454384
 30
0.0
 11
214.6768651487
 21
452.6880454384
 31
0.0
  0
LINE
  5
4F1
330
1F
100
AcDbEntity
  8
0
  6
Continuous
 62
     7
370
    40
100
AcDbLine
 10
374.2016121632
 20
452.6880454384
 30
0.0
 11
343.1295568543
 21
452.6880454384
 31
0.0
  0
LINE
  5
4F2
330
1F
100
AcDbEntity
  8
0
  6
Continuous
 62
     7
370
    40
100
AcDbLine
 10
343.0914814337
 20
458.7282608312
 30
0.0
 11
374.139238656
 21
458.7282608312
 31
0.0
  0
LINE
  5
4F3
330
1F
100
AcDbEntity
  8
0
  6
Continuous
 62
     7
370
    40
100
AcDbLine
 10
214.739238656
 20
458.7282608312
 30
0.0
 11
343.0914814337
 21
458.7282608312
 31
0.0
  0
LINE
  5
4F4
330
1F
100
AcDbEntity
  8
0
  6
Continuous
 62
     7
370
    40
100
AcDbLine
 10
238.0544002684
 20
413.7282608312
 30
0.0
 11
350.8240770436
 21
413.7282608312
 31
0.0
  0
LINE
  5
4F5
330
1F
100
AcDbEntity
  8
0
  6
Continuous
 62
     7
370
    40
100
AcDbLine
 10
583.439238656
 20
458.4282608312
 30
0.0
 11
423.439238656
 21
458.4282608312
 31
0.0
  0
LINE
  5
4F6
330
1F
100
AcDbEntity
  8
0
  6
Continuous
 62
     7
370
    40
100
AcDbLine
 10
452.6280234702
 20
452.9814897187
 30
0.0
 11
583.439238656
 21
452.9814897187
 31
0.0
  0
LINE
  5
4F7
330
1F
100
AcDbEntity
  8
0
  6
Continuous
 62
     7
370
    40
100
AcDbLine
 10
423.439238656
 20
452.9814897187
 30
0.0
 11
452.6280234702
 21
452.9814897187
 31
0.0
  0
LINE
  5
4F8
330
1F
100
AcDbEntity
  8
0
  6
Continuous
 62
     7
370
    40
100
AcDbLine
 10
423.739238656
 20
458.7282608312
 30
0.0
 11
583.139238656
 21
458.7282608312
 31
0.0
  0
LINE
  5
4F9
330
1F
100
AcDbEntity
  8
0
  6
Continuous
 62
     7
370
    40
100
AcDbLine
 10
583.2016121632
 20
452.6880454384
 30
0.0
 11
423.6768651487
 21
452.6880454384
 31
0.0
  0
LINE
  5
4FA
330
1F
100
AcDbEntity
  8
0
  6
Continuous
 62
     7
370
    40
100
AcDbLine
 10
467.6269616993
 20
413.7282608312
 30
0.0
 11
559.8240770436
 21
413.7282608312
 31
0.0
  0
LINE
  5
4FB
330
1F
100
AcDbEntity
  8
0
  6
Continuous
 62
     7
370
    40
100
AcDbLine
 10
447.0544002684
 20
413.7282608312
 30
0.0
 11
467.6269616993
 21
413.7282608312
 31
0.0
  0
LINE
  5
4FC
330
1F
100
AcDbEntity
  8
0
  6
Continuous
 62
     7
370
    40
100
AcDbLine
 10
214.439238656
 20
215.0282608312
 30
0.0
 11
374.439238656
 21
215.0282608312
 31
0.0
  0
LINE
  5
4FD
330
1F
100
AcDbEntity
  8
0
  6
Continuous
 62
     7
370
    40
100
AcDbLine
 10
294.439238656
 20
220.4750319437
 30
0.0
 11
214.439238656
 21
220.4750319437
 31
0.0
  0
LINE
  5
4FE
330
1F
100
AcDbEntity
  8
0
  6
Continuous
 62
     7
370
    40
100
AcDbLine
 10
374.439238656
 20
220.4750319437
 30
0.0
 11
294.439238656
 21
220.4750319437
 31
0.0
  0
LINE
  5
4FF
330
1F
100
AcDbEntity
  8
0
  6
Continuous
 62
     7
370
    40
100
AcDbLine
 10
374.139238656
 20
214.7282608312
 30
0.0
 11
214.739238656
 21
214.7282608312
 31
0.0
  0
LINE
  5
500
330
1F
100
AcDbEntity
  8
0
  6
Continuous
 62
     7
370
    40
100
AcDbLine
 10
214.6768651487
 20
220.768476224
 30
0.0
 11
374.2016121632
 21
220.768476224
 31
0.0
  0
LINE
  5
501
330
1F
100
AcDbEntity
  8
0
  6
Continuous
 62
     7
370
    40
100
AcDbLine
 10
294.439238656
 20
259.7282608312
 30
0.0
 11
238.0544002684
 21
259.7282608312
 31
0.0
  0
LINE
  5
502
330
1F
100
AcDbEntity
  8
0
  6
Continuous
 62
     7
370
    40
100
AcDbLine
 10
350.8240770436
 20
259.7282608312
 30
0.0
 11
294.439238656
 21
259.7282608312
 31
0.0
  0
LINE
  5
503
330
1F
100
AcDbEntity
  8
0
  6
Continuous
 62
     7
370
    40
100
AcDbLine
 10
423.439238656
 20
215.0282608312
 30
0.0
 11
583.439238656
 21
215.0282608312
 31
0.0
  0
LINE
  5
504
330
1F
100
AcDbEntity
  8
0
  6
Continuous
 62
     7
370
    40
100
AcDbLine
 10
503.439238656
 20
220.4750319437
 30
0.0
 11
423.439238656
 21
220.4750319437
 31
0.0
  0
LINE
  5
505
330
1F
100
AcDbEntity
  8
0
  6
Continuous
 62
     7
370
    40
100
AcDbLine
 10
583.439238656
 20
220.4750319437
 30
0.0
 11
503.439238656
 21
220.4750319437
 31
0.0
  0
LINE
  5
506
330
1F
100
AcDbEntity
  8
0
  6
Continuous
 62
     7
370
    40
100
AcDbLine
 10
583.139238656
 20
214.7282608312
 30
0.0
 11
423.739238656
 21
214.7282608312
 31
0.0
  0
LINE
  5
507
330
1F
100
AcDbEntity
  8
0
  6
Continuous
 62
     7
370
    40
100
AcDbLine
 10
423.6768651487
 20
220.768476224
 30
0.0
 11
583.2016121632
 21
220.768476224
 31
0.0
  0
LINE
  5
508
330
1F
100
AcDbEntity
  8
0
  6
Continuous
 62
     7
370
    40
100
AcDbLine
 10
503.439238656
 20
259.7282608312
 30
0.0
 11
447.0544002684
 21
259.7282608312
 31
0.0
  0
LINE
  5
509
330
1F
100
AcDbEntity
  8
0
  6
Continuous
 62
     7
370
    40
100
AcDbLine
 10
559.8240770436
 20
259.7282608312
 30
0.0
 11
503.439238656
 21
259.7282608312
 31
0.0
  0
SPLINE
  5
50A
330
1F
100
AcDbEntity
  8
0
  6
Continuous
 62
     7
370
    40
100
AcDbSpline
210
0.0
220
0.0
230
1.0
 70
     8
 71
     3
 72
     9
 73
     5
 74
     0
 42
0.000000001
 43
0.00000001
 40
0.0
 40
0.0
 40
0.0
 40
0.0
 40
0.4991100027504916
 40
1.0
 40
1.0
 40
1.0
 40
1.0
 10
415.3698742779659
 20
384.7396221572713
 30
0.0
 10
415.3638496776156
 20
384.8085132633143
 30
0.0
 10
415.3517789911594
 20
384.9465411643047
 30
0.0
 10
415.1766624575848
 20
385.3702296780127
 30
0.0
 10
415.0889483375643
 20
385.5824510164785
 30
0.0
  0
LINE
  5
50B
330
1F
100
AcDbEntity
  8
0
  6
Continuous
 62
     7
370
    40
100
AcDbLine
 10
382.508603034
 20
384.7396221573
 30
0.0
 11
382.439238656
 21
383.2282608312
 31
0.0
  0
LINE
  5
50C
330
1F
100
AcDbEntity
  8
0
  6
Continuous
 62
     7
370
    40
100
AcDbLine
 10
415.439238656
 20
383.2282608312
 30
0.0
 11
415.369874278
 21
384.7396221573
 31
0.0
  0
SPLINE
  5
50D
330
1F
100
AcDbEntity
  8
0
  6
Continuous
 62
     7
370
    40
100
AcDbSpline
210
0.0
220
0.0
230
1.0
 70
     8
 71
     3
 72
     9
 73
     5
 74
     0
 42
0.000000001
 43
0.00000001
 40
0.0
 40
0.0
 40
0.0
 40
0.0
 40
0.4986826013938384
 40
1.0
 40
1.0
 40
1.0
 40
1.0
 10
382.7895289744212
 20
385.5824510164786
 30
0.0
 10
382.7020867096254
 20
385.371010395737
 30
0.0
 10
382.5267401774797
 20
384.9470120044747
 30
0.0
 10
382.5146593586755
 20
384.8088734287172
 30
0.0
 10
382.5086030340195
 20
384.7396221572713
 30
0.0
  0
SPLINE
  5
50E
330
1F
100
AcDbEntity
  8
0
  6
Continuous
 62
     7
370
    40
100
AcDbSpline
210
0.0
220
0.0
230
1.0
 70
     8
 71
     3
 72
    15
 73
    11
 74
     0
 42
0.000000001
 43
0.00000001
 40
0.0
 40
0.0
 40
0.0
 40
0.0
 40
0.1069406747334446
 40
0.2140739846219441
 40
0.3533324138196279
 40
0.4924493993343235
 40
0.628211840121799
 40
0.7642001986061312
 40
0.882169043604538
 40
1.0
 40
1.0
 40
1.0
 40
1.0
 10
392.1495368339542
 20
393.7282608312004
 30
0.0
 10
391.5358772702323
 20
393.4735213575269
 30
0.0
 10
390.307452741074
 20
392.9635835410161
 30
0.0
 10
388.5046084699717
 20
391.9958698564415
 30
0.0
 10
386.772852695127
 20
390.7667138739959
 30
0.0
 10
385.2484198842419
 20
389.3330972514515
 30
0.0
 10
384.1434755429829
 20
387.9948142336442
 30
0.0
 10
383.4327690976551
 20
386.9074046736786
 30
0.0
 10
382.9948311006224
 20
386.0365055150234
 30
0.0
 10
382.8579363325128
 20
385.7337435006325
 30
0.0
 10
382.7895289744212
 20
385.5824510164785
 30
0.0
  0
SPLINE
  5
50F
330
1F
100
AcDbEntity
  8
0
  6
Continuous
 62
     7
370
    40
100
AcDbSpline
210
0.0
220
0.0
230
1.0
 70
     8
 71
     3
 72
    12
 73
     8
 74
     0
 42
0.000000001
 43
0.00000001
 40
0.0
 40
0.0
 40
0.0
 40
0.0
 40
0.1933220473508594
 40
0.3921888881119416
 40
0.5855534192321362
 40
0.7845979634260047
 40
1.0
 40
1.0
 40
1.0
 40
1.0
 10
405.7289404780371
 20
393.7282608311996
 30
0.0
 10
404.8904905131476
 20
394.0130354125576
 30
0.0
 10
403.1895424631263
 20
394.5907523773623
 30
0.0
 10
400.47757807183
 20
394.9785718458547
 30
0.0
 10
397.7130958092753
 20
395.0004562413822
 30
0.0
 10
394.8884179693642
 20
394.6443256484027
 30
0.0
 10
393.0862072627808
 20
394.0415459950094
 30
0.0
 10
392.1495368339543
 20
393.7282608311996
 30
0.0
  0
SPLINE
  5
510
330
1F
100
AcDbEntity
  8
0
  6
Continuous
 62
     7
370
    40
100
AcDbSpline
210
0.0
220
0.0
230
1.0
 70
     8
 71
     3
 72
    15
 73
    11
 74
     0
 42
0.000000001
 43
0.00000001
 40
0.0
 40
0.0
 40
0.0
 40
0.0
 40
0.1109930852237735
 40
0.2220964410115028
 40
0.3506210581782671
 40
0.4789600204532598
 40
0.6097322554343427
 40
0.7406898392583734
 40
0.8705253193644386
 40
1.0
 40
1.0
 40
1.0
 40
1.0
 10
415.0889483375643
 20
385.5824510164786
 30
0.0
 10
415.0253475988918
 20
385.72277644719
 30
0.0
 10
414.8980829348239
 20
386.0035667205803
 30
0.0
 10
414.5014718359611
 20
386.8035846825223
 30
0.0
 10
413.8671532174268
 20
387.8064935828069
 30
0.0
 10
412.8919924516698
 20
389.0366591420561
 30
0.0
 10
411.5411150284488
 20
390.3891302438843
 30
0.0
 10
409.8726295851382
 20
391.6832911746601
 30
0.0
 10
407.9504581278375
 20
392.7940379624137
 30
0.0
 10
406.4687591582493
 20
393.4171422002622
 30
0.0
 10
405.7289404780372
 20
393.7282608311996
 30
0.0
  0
SPLINE
  5
511
330
1F
100
AcDbEntity
  8
0
  6
Continuous
 62
     7
370
    40
100
AcDbSpline
210
0.0
220
0.0
230
1.0
 70
     8
 71
     3
 72
    15
 73
    11
 74
     0
 42
0.000000001
 43
0.00000001
 40
0.0
 40
0.0
 40
0.0
 40
0.0
 40
0.1109930852237487
 40
0.2220964410114539
 40
0.3506210581781831
 40
0.4789600204531394
 40
0.6097322554341864
 40
0.7406898392581801
 40
0.8705253193643361
 40
1.0
 40
1.0
 40
1.0
 40
1.0
 10
382.7895289744212
 20
287.8740706459206
 30
0.0
 10
382.8531297130937
 20
287.7337452152092
 30
0.0
 10
382.9803943771616
 20
287.4529549418188
 30
0.0
 10
383.3770054760245
 20
286.6529369798767
 30
0.0
 10
384.0113240945587
 20
285.6500280795921
 30
0.0
 10
384.9864848603158
 20
284.4198625203429
 30
0.0
 10
386.3373622835369
 20
283.0673914185149
 30
0.0
 10
388.0058477268477
 20
281.773230487738
 30
0.0
 10
389.9280191841512
 20
280.662483699986
 30
0.0
 10
391.4097181537417
 20
280.0393794621382
 30
0.0
 10
392.149536833955
 20
279.7282608312012
 30
0.0
  0
SPLINE
  5
512
330
1F
100
AcDbEntity
  8
0
  6
Continuous
 62
     7
370
    40
100
AcDbSpline
210
0.0
220
0.0
230
1.0
 70
     8
 71
     3
 72
     9
 73
     5
 74
     0
 42
0.000000001
 43
0.00000001
 40
0.0
 40
0.0
 40
0.0
 40
0.0
 40
0.4991100027504903
 40
1.0
 40
1.0
 40
1.0
 40
1.0
 10
382.5086030340195
 20
288.7168995051278
 30
0.0
 10
382.5146276343699
 20
288.6480083990849
 30
0.0
 10
382.5266983208261
 20
288.5099804980944
 30
0.0
 10
382.7018148544007
 20
288.0862919843864
 30
0.0
 10
382.7895289744212
 20
287.8740706459207
 30
0.0
  0
LINE
  5
513
330
1F
100
AcDbEntity
  8
0
  6
Continuous
 62
     7
370
    40
100
AcDbLine
 10
382.508603034
 20
288.7168995051
 30
0.0
 11
382.439238656
 21
290.2282608312
 31
0.0
  0
LINE
  5
514
330
1F
100
AcDbEntity
  8
0
  6
Continuous
 62
     7
370
    40
100
AcDbLine
 10
415.439238656
 20
290.2282608312
 30
0.0
 11
415.369874278
 21
288.7168995051
 31
0.0
  0
SPLINE
  5
515
330
1F
100
AcDbEntity
  8
0
  6
Continuous
 62
     7
370
    40
100
AcDbSpline
210
0.0
220
0.0
230
1.0
 70
     8
 71
     3
 72
     9
 73
     5
 74
     0
 42
0.000000001
 43
0.00000001
 40
0.0
 40
0.0
 40
0.0
 40
0.0
 40
0.4986826013938369
 40
1.0
 40
1.0
 40
1.0
 40
1.0
 10
415.0889483375643
 20
287.8740706459205
 30
0.0
 10
415.1763906023601
 20
288.085511266662
 30
0.0
 10
415.3517371345058
 20
288.5095096579244
 30
0.0
 10
415.36381795331
 20
288.6476482336819
 30
0.0
 10
415.3698742779659
 20
288.7168995051277
 30
0.0
  0
SPLINE
  5
516
330
1F
100
AcDbEntity
  8
0
  6
Continuous
 62
     7
370
    40
100
AcDbSpline
210
0.0
220
0.0
230
1.0
 70
     8
 71
     3
 72
    15
 73
    11
 74
     0
 42
0.000000001
 43
0.00000001
 40
0.0
 40
0.0
 40
0.0
 40
0.0
 40
0.1069406747334778
 40
0.2140739846220129
 40
0.3533324138197229
 40
0.4924493993344433
 40
0.6282118401219385
 40
0.7642001986062935
 40
0.8821690436046186
 40
1.0
 40
1.0
 40
1.0
 40
1.0
 10
405.7289404780372
 20
279.7282608311996
 30
0.0
 10
406.3426000417589
 20
279.9830003048733
 30
0.0
 10
407.5710245709168
 20
280.492938121385
 30
0.0
 10
409.3738688420182
 20
281.4606518059604
 30
0.0
 10
411.1056246168622
 20
282.6898077884062
 30
0.0
 10
412.6300574277462
 20
284.1234244109505
 30
0.0
 10
413.7350017690043
 20
285.4617074287573
 30
0.0
 10
414.4457082143313
 20
286.5491169887221
 30
0.0
 10
414.8836462113633
 20
287.4200161473763
 30
0.0
 10
415.0205409794727
 20
287.7227781617668
 30
0.0
 10
415.0889483375643
 20
287.8740706459207
 30
0.0
  0
SPLINE
  5
517
330
1F
100
AcDbEntity
  8
0
  6
Continuous
 62
     7
370
    40
100
AcDbSpline
210
0.0
220
0.0
230
1.0
 70
     8
 71
     3
 72
    12
 73
     8
 74
     0
 42
0.000000001
 43
0.00000001
 40
0.0
 40
0.0
 40
0.0
 40
0.0
 40
0.1933220473508595
 40
0.392188888111942
 40
0.5855534192321363
 40
0.7845979634260044
 40
1.0
 40
1.0
 40
1.0
 40
1.0
 10
405.7289404780373
 20
279.7282608311996
 30
0.0
 10
404.8904905131476
 20
279.4434862498415
 30
0.0
 10
403.1895424631263
 20
278.8657692850368
 30
0.0
 10
400.47757807183
 20
278.4779498165445
 30
0.0
 10
397.7130958092753
 20
278.4560654210169
 30
0.0
 10
394.8884179693642
 20
278.8121960139964
 30
0.0
 10
393.0862072627808
 20
279.4149756673897
 30
0.0
 10
392.1495368339542
 20
279.7282608311996
 30
0.0
  0
LINE
  5
518
330
1F
100
AcDbEntity
  8
0
  6
Continuous
 62
     7
370
    40
100
AcDbLine
 10
369.939238656
 20
395.7282608312
 30
0.0
 11
427.939238656
 21
395.7282608312
 31
0.0
  0
LINE
  5
519
330
1F
100
AcDbEntity
  8
0
  6
Continuous
 62
     7
370
    40
100
AcDbLine
 10
373.439238656
 20
399.2282608312
 30
0.0
 11
424.439238656
 21
399.2282608312
 31
0.0
  0
LINE
  5
51A
330
1F
100
AcDbEntity
  8
0
  6
Continuous
 62
     7
370
    40
100
AcDbLine
 10
420.139841435
 20
393.7282608312
 30
0.0
 11
427.939238656
 21
393.7282608312
 31
0.0
  0
LINE
  5
51B
330
1F
100
AcDbEntity
  8
0
  6
Continuous
 62
     7
370
    40
100
AcDbLine
 10
405.728940478
 20
393.7282608312
 30
0.0
 11
420.139841435
 21
393.7282608312
 31
0.0
  0
LINE
  5
51C
330
1F
100
AcDbEntity
  8
0
  6
Continuous
 62
     7
370
    40
100
AcDbLine
 10
377.7386358769
 20
393.7282608312
 30
0.0
 11
392.149536834
 21
393.7282608312
 31
0.0
  0
LINE
  5
51D
330
1F
100
AcDbEntity
  8
0
  6
Continuous
 62
     7
370
    40
100
AcDbLine
 10
369.939238656
 20
393.7282608312
 30
0.0
 11
377.7386358769
 21
393.7282608312
 31
0.0
  0
LINE
  5
51E
330
1F
100
AcDbEntity
  8
0
  6
Continuous
 62
     7
370
    40
100
AcDbLine
 10
427.9392385713
 20
277.7282608312
 30
0.0
 11
369.939238656
 21
277.7282608312
 31
0.0
  0
LINE
  5
51F
330
1F
100
AcDbEntity
  8
0
  6
Continuous
 62
     7
370
    40
100
AcDbLine
 10
373.439238656
 20
274.2282608312
 30
0.0
 11
424.439238656
 21
274.2282608312
 31
0.0
  0
LINE
  5
520
330
1F
100
AcDbEntity
  8
0
  6
Continuous
 62
     7
370
    40
100
AcDbLine
 10
369.939238656
 20
279.7282608312
 30
0.0
 11
377.7386358769
 21
279.7282608312
 31
0.0
  0
LINE
  5
521
330
1F
100
AcDbEntity
  8
0
  6
Continuous
 62
     7
370
    40
100
AcDbLine
 10
377.7386358769
 20
279.7282608312
 30
0.0
 11
392.149536834
 21
279.7282608312
 31
0.0
  0
LINE
  5
522
330
1F
100
AcDbEntity
  8
0
  6
Continuous
 62
     7
370
    40
100
AcDbLine
 10
405.728940478
 20
279.7282608312
 30
0.0
 11
420.139841435
 21
279.7282608312
 31
0.0
  0
LINE
  5
523
330
1F
100
AcDbEntity
  8
0
  6
Continuous
 62
     7
370
    40
100
AcDbLine
 10
420.139841435
 20
279.7282608312
 30
0.0
 11
427.939238656
 21
279.7282608312
 31
0.0
  0
LINE
  5
524
330
1F
100
AcDbEntity
  8
0
  6
Continuous
 62
     7
370
    40
100
AcDbLine
 10
372.939238656
 20
400.094286235
 30
0.0
 11
424.939238656
 21
400.094286235
 31
0.0
  0
LINE
  5
525
330
1F
100
AcDbEntity
  8
0
  6
Continuous
 62
     7
370
    40
100
AcDbLine
 10
372.939238656
 20
501.2282608312
 30
0.0
 11
424.939238656
 21
501.2282608312
 31
0.0
  0
LINE
  5
526
330
1F
100
AcDbEntity
  8
0
  6
Continuous
 62
     7
370
    40
100
AcDbLine
 10
375.939238656
 20
504.2282608312
 30
0.0
 11
421.939238656
 21
504.2282608312
 31
0.0
  0
LINE
  5
527
330
1F
100
AcDbEntity
  8
0
  6
Continuous
 62
     7
370
    40
100
AcDbLine
 10
372.939238656
 20
273.3622354274
 30
0.0
 11
424.939238656
 21
273.3622354274
 31
0.0
  0
LINE
  5
528
330
1F
100
AcDbEntity
  8
0
  6
Continuous
 62
     7
370
    40
100
AcDbLine
 10
372.939238656
 20
172.2282608312
 30
0.0
 11
424.939238656
 21
172.2282608312
 31
0.0
  0
LINE
  5
529
330
1F
100
AcDbEntity
  8
0
  6
Continuous
 62
     7
370
    40
100
AcDbLine
 10
375.939238656
 20
169.2282608312
 30
0.0
 11
421.939238656
 21
169.2282608312
 31
0.0
  0
LINE
  5
52A
330
1F
100
AcDbEntity
  8
0
  6
Continuous
 62
     7
370
    40
100
AcDbLine
 10
356.439238656
 20
177.7282608312
 30
0.0
 11
441.439238656
 21
177.7282608312
 31
0.0
  0
LINE
  5
52B
330
1F
100
AcDbEntity
  8
0
  6
Continuous
 62
     7
370
    40
100
AcDbLine
 10
439.439238656
 20
175.7282608312
 30
0.0
 11
358.439238656
 21
175.7282608312
 31
0.0
  0
LINE
  5
52C
330
1F
100
AcDbEntity
  8
0
  6
Continuous
 62
     7
370
    40
100
AcDbLine
 10
358.439238656
 20
497.7282608312
 30
0.0
 11
439.439238656
 21
497.7282608312
 31
0.0
  0
LINE
  5
52D
330
1F
100
AcDbEntity
  8
0
  6
Continuous
 62
     7
370
    40
100
AcDbLine
 10
441.439238656
 20
495.7282608312
 30
0.0
 11
356.439238656
 21
495.7282608312
 31
0.0
  0
LINE
  5
52E
330
1F
100
AcDbEntity
  8
0
  6
Continuous
 62
     7
370
    40
100
AcDbLine
 10
342.439238656
 20
458.7282608312
 30
0.0
 11
342.439238656
 21
461.7282608312
 31
0.0
  0
LINE
  5
52F
330
1F
100
AcDbEntity
  8
0
  6
Continuous
 62
     7
370
    40
100
AcDbLine
 10
336.439238656
 20
458.7282608312
 30
0.0
 11
336.439238656
 21
461.7282608312
 31
0.0
  0
LINE
  5
530
330
1F
100
AcDbEntity
  8
0
  6
Continuous
 62
     7
370
    40
100
AcDbLine
 10
461.439238656
 20
458.7282608312
 30
0.0
 11
461.439238656
 21
461.7282608312
 31
0.0
  0
LINE
  5
531
330
1F
100
AcDbEntity
  8
0
  6
Continuous
 62
     7
370
    40
100
AcDbLine
 10
455.439238656
 20
458.7282608312
 30
0.0
 11
455.439238656
 21
461.7282608312
 31
0.0
  0
LINE
  5
532
330
1F
100
AcDbEntity
  8
0
  6
Continuous
 62
     7
370
    40
100
AcDbLine
 10
336.439238656
 20
214.7282608312
 30
0.0
 11
336.439238656
 21
211.7282608312
 31
0.0
  0
LINE
  5
533
330
1F
100
AcDbEntity
  8
0
  6
Continuous
 62
     7
370
    40
100
AcDbLine
 10
342.439238656
 20
214.7282608312
 30
0.0
 11
342.439238656
 21
211.7282608312
 31
0.0
  0
LINE
  5
534
330
1F
100
AcDbEntity
  8
0
  6
Continuous
 62
     7
370
    40
100
AcDbLine
 10
455.439238656
 20
214.7282608312
 30
0.0
 11
455.439238656
 21
211.7282608312
 31
0.0
  0
LINE
  5
535
330
1F
100
AcDbEntity
  8
0
  6
Continuous
 62
     7
370
    40
100
AcDbLine
 10
461.439238656
 20
214.7282608312
 30
0.0
 11
461.439238656
 21
211.7282608312
 31
0.0
  0
LINE
  5
536
330
1F
100
AcDbEntity
  8
0
  6
Continuous
 62
     7
370
    40
100
AcDbLine
 10
228.939238656
 20
211.7282608312
 30
0.0
 11
253.939238656
 21
211.7282608312
 31
0.0
  0
LINE
  5
537
330
1F
100
AcDbEntity
  8
0
  6
Continuous
 62
     7
370
    40
100
AcDbLine
 10
253.939238656
 20
191.7282608312
 30
0.0
 11
228.939238656
 21
191.7282608312
 31
0.0
  0
LINE
  5
538
330
1F
100
AcDbEntity
  8
0
  6
Continuous
 62
     7
370
    40
100
AcDbLine
 10
228.939238656
 20
211.7282608312
 30
0.0
 11
228.939238656
 21
191.7282608312
 31
0.0
  0
LINE
  5
539
330
1F
100
AcDbEntity
  8
0
  6
Continuous
 62
     7
370
    40
100
AcDbLine
 10
253.939238656
 20
191.7282608312
 30
0.0
 11
543.939238656
 21
191.7282608312
 31
0.0
  0
LINE
  5
53A
330
1F
100
AcDbEntity
  8
0
  6
Continuous
 62
     7
370
    40
100
AcDbLine
 10
543.939238656
 20
211.7282608312
 30
0.0
 11
253.939238656
 21
211.7282608312
 31
0.0
  0
LINE
  5
53B
330
1F
100
AcDbEntity
  8
0
  6
Continuous
 62
     7
370
    40
100
AcDbLine
 10
568.939238656
 20
211.7282608312
 30
0.0
 11
568.939238656
 21
191.7282608312
 31
0.0
  0
LINE
  5
53C
330
1F
100
AcDbEntity
  8
0
  6
Continuous
 62
     7
370
    40
100
AcDbLine
 10
568.939238656
 20
191.7282608312
 30
0.0
 11
543.939238656
 21
191.7282608312
 31
0.0
  0
LINE
  5
53D
330
1F
100
AcDbEntity
  8
0
  6
Continuous
 62
     7
370
    40
100
AcDbLine
 10
543.939238656
 20
211.7282608312
 30
0.0
 11
568.939238656
 21
211.7282608312
 31
0.0
  0
LINE
  5
53E
330
1F
100
AcDbEntity
  8
0
  6
Continuous
 62
     7
370
    40
100
AcDbLine
 10
580.939238656
 20
191.7282608312
 30
0.0
 11
568.939238656
 21
191.7282608312
 31
0.0
  0
LINE
  5
53F
330
1F
100
AcDbEntity
  8
0
  6
Continuous
 62
     7
370
    40
100
AcDbLine
 10
568.939238656
 20
211.7282608312
 30
0.0
 11
580.939238656
 21
211.7282608312
 31
0.0
  0
LINE
  5
540
330
1F
100
AcDbEntity
  8
0
  6
Continuous
 62
     7
370
    40
100
AcDbLine
 10
228.939238656
 20
191.7282608312
 30
0.0
 11
216.939238656
 21
191.7282608312
 31
0.0
  0
LINE
  5
541
330
1F
100
AcDbEntity
  8
0
  6
Continuous
 62
     7
370
    40
100
AcDbLine
 10
216.939238656
 20
211.7282608312
 30
0.0
 11
228.939238656
 21
211.7282608312
 31
0.0
  0
ARC
  5
542
330
1F
100
AcDbEntity
  8
0
  6
Continuous
 62
     7
370
    40
100
AcDbCircle
 10
583.939238656
 20
231.7282608312
 30
0.0
 40
40.0
100
AcDbArc
 50
270.0
 51
0.0
  0
ARC
  5
543
330
1F
100
AcDbEntity
  8
0
  6
Continuous
 62
     7
370
    40
100
AcDbCircle
 10
583.939238656
 20
231.7282608312
 30
0.0
 40
20.0
100
AcDbArc
 50
270.0
 51
0.0
  0
LINE
  5
544
330
1F
100
AcDbEntity
  8
0
  6
Continuous
 62
     7
370
    40
100
AcDbLine
 10
603.939238656
 20
231.7282608312
 30
0.0
 11
603.939238656
 21
253.7282608312
 31
0.0
  0
LINE
  5
545
330
1F
100
AcDbEntity
  8
0
  6
Continuous
 62
     7
370
    40
100
AcDbLine
 10
623.939238656
 20
253.7282608312
 30
0.0
 11
623.939238656
 21
231.7282608312
 31
0.0
  0
LINE
  5
546
330
1F
100
AcDbEntity
  8
0
  6
Continuous
 62
     7
370
    40
100
AcDbLine
 10
583.939238656
 20
191.7282608312
 30
0.0
 11
580.939238656
 21
191.7282608312
 31
0.0
  0
LINE
  5
547
330
1F
100
AcDbEntity
  8
0
  6
Continuous
 62
     7
370
    40
100
AcDbLine
 10
580.939238656
 20
211.7282608312
 30
0.0
 11
583.939238656
 21
211.7282608312
 31
0.0
  0
LINE
  5
548
330
1F
100
AcDbEntity
  8
0
  6
Continuous
 62
     7
370
    40
100
AcDbLine
 10
603.939238656
 20
253.7282608312
 30
0.0
 11
603.939238656
 21
259.7282608312
 31
0.0
  0
LINE
  5
549
330
1F
100
AcDbEntity
  8
0
  6
Continuous
 62
     7
370
    40
100
AcDbLine
 10
603.939238656
 20
259.7282608312
 30
0.0
 11
623.939238656
 21
259.7282608312
 31
0.0
  0
LINE
  5
54A
330
1F
100
AcDbEntity
  8
0
  6
Continuous
 62
     7
370
    40
100
AcDbLine
 10
623.939238656
 20
259.7282608312
 30
0.0
 11
623.939238656
 21
253.7282608312
 31
0.0
  0
LINE
  5
54B
330
1F
100
AcDbEntity
  8
0
  6
Continuous
 62
     7
370
    40
100
AcDbLine
 10
173.939238656
 20
253.7282608312
 30
0.0
 11
173.939238656
 21
259.7282608312
 31
0.0
  0
LINE
  5
54C
330
1F
100
AcDbEntity
  8
0
  6
Continuous
 62
     7
370
    40
100
AcDbLine
 10
173.939238656
 20
259.7282608312
 30
0.0
 11
193.939238656
 21
259.7282608312
 31
0.0
  0
LINE
  5
54D
330
1F
100
AcDbEntity
  8
0
  6
Continuous
 62
     7
370
    40
100
AcDbLine
 10
193.939238656
 20
259.7282608312
 30
0.0
 11
193.939238656
 21
253.7282608312
 31
0.0
  0
ARC
  5
54E
330
1F
100
AcDbEntity
  8
0
  6
Continuous
 62
     7
370
    40
100
AcDbCircle
 10
213.939238656
 20
231.7282608312
 30
0.0
 40
20.00000000000003
100
AcDbArc
 50
180.0
 51
270.0
  0
ARC
  5
54F
330
1F
100
AcDbEntity
  8
0
  6
Continuous
 62
     7
370
    40
100
AcDbCircle
 10
213.939238656
 20
231.7282608312
 30
0.0
 40
40.00000000000003
100
AcDbArc
 50
180.0
 51
270.0
  0
LINE
  5
550
330
1F
100
AcDbEntity
  8
0
  6
Continuous
 62
     7
370
    40
100
AcDbLine
 10
173.939238656
 20
253.7282608312
 30
0.0
 11
173.939238656
 21
231.7282608312
 31
0.0
  0
LINE
  5
551
330
1F
100
AcDbEntity
  8
0
  6
Continuous
 62
     7
370
    40
100
AcDbLine
 10
193.939238656
 20
253.7282608312
 30
0.0
 11
193.939238656
 21
231.7282608312
 31
0.0
  0
LINE
  5
552
330
1F
100
AcDbEntity
  8
0
  6
Continuous
 62
     7
370
    40
100
AcDbLine
 10
216.939238656
 20
191.7282608312
 30
0.0
 11
213.939238656
 21
191.7282608312
 31
0.0
  0
LINE
  5
553
330
1F
100
AcDbEntity
  8
0
  6
Continuous
 62
     7
370
    40
100
AcDbLine
 10
213.939238656
 20
211.7282608312
 30
0.0
 11
216.939238656
 21
211.7282608312
 31
0.0
  0
LINE
  5
554
330
1F
100
AcDbEntity
  8
0
  6
Continuous
 62
     7
370
    40
100
AcDbLine
 10
568.939238656
 20
461.7282608312
 30
0.0
 11
543.939238656
 21
461.7282608312
 31
0.0
  0
LINE
  5
555
330
1F
100
AcDbEntity
  8
0
  6
Continuous
 62
     7
370
    40
100
AcDbLine
 10
543.939238656
 20
481.7282608312
 30
0.0
 11
568.939238656
 21
481.7282608312
 31
0.0
  0
LINE
  5
556
330
1F
100
AcDbEntity
  8
0
  6
Continuous
 62
     7
370
    40
100
AcDbLine
 10
568.939238656
 20
461.7282608312
 30
0.0
 11
568.939238656
 21
481.7282608312
 31
0.0
  0
LINE
  5
557
330
1F
100
AcDbEntity
  8
0
  6
Continuous
 62
     7
370
    40
100
AcDbLine
 10
543.939238656
 20
481.7282608312
 30
0.0
 11
253.939238656
 21
481.7282608312
 31
0.0
  0
LINE
  5
558
330
1F
100
AcDbEntity
  8
0
  6
Continuous
 62
     7
370
    40
100
AcDbLine
 10
253.939238656
 20
461.7282608312
 30
0.0
 11
543.939238656
 21
461.7282608312
 31
0.0
  0
LINE
  5
559
330
1F
100
AcDbEntity
  8
0
  6
Continuous
 62
     7
370
    40
100
AcDbLine
 10
253.939238656
 20
461.7282608312
 30
0.0
 11
228.939238656
 21
461.7282608312
 31
0.0
  0
LINE
  5
55A
330
1F
100
AcDbEntity
  8
0
  6
Continuous
 62
     7
370
    40
100
AcDbLine
 10
228.939238656
 20
461.7282608312
 30
0.0
 11
228.939238656
 21
481.7282608312
 31
0.0
  0
LINE
  5
55B
330
1F
100
AcDbEntity
  8
0
  6
Continuous
 62
     7
370
    40
100
AcDbLine
 10
228.939238656
 20
481.7282608312
 30
0.0
 11
253.939238656
 21
481.7282608312
 31
0.0
  0
LINE
  5
55C
330
1F
100
AcDbEntity
  8
0
  6
Continuous
 62
     7
370
    40
100
AcDbLine
 10
228.939238656
 20
461.7282608312
 30
0.0
 11
216.939238656
 21
461.7282608312
 31
0.0
  0
LINE
  5
55D
330
1F
100
AcDbEntity
  8
0
  6
Continuous
 62
     7
370
    40
100
AcDbLine
 10
216.939238656
 20
481.7282608312
 30
0.0
 11
228.939238656
 21
481.7282608312
 31
0.0
  0
LINE
  5
55E
330
1F
100
AcDbEntity
  8
0
  6
Continuous
 62
     7
370
    40
100
AcDbLine
 10
580.939238656
 20
461.7282608312
 30
0.0
 11
568.939238656
 21
461.7282608312
 31
0.0
  0
LINE
  5
55F
330
1F
100
AcDbEntity
  8
0
  6
Continuous
 62
     7
370
    40
100
AcDbLine
 10
568.939238656
 20
481.7282608312
 30
0.0
 11
580.939238656
 21
481.7282608312
 31
0.0
  0
ARC
  5
560
330
1F
100
AcDbEntity
  8
0
  6
Continuous
 62
     7
370
    40
100
AcDbCircle
 10
213.939238656
 20
441.7282608312
 30
0.0
 40
40.00000000000006
100
AcDbArc
 50
90.0
 51
180.0
  0
ARC
  5
561
330
1F
100
AcDbEntity
  8
0
  6
Continuous
 62
     7
370
    40
100
AcDbCircle
 10
213.939238656
 20
441.7282608312
 30
0.0
 40
20.0
100
AcDbArc
 50
90.0
 51
180.0
  0
LINE
  5
562
330
1F
100
AcDbEntity
  8
0
  6
Continuous
 62
     7
370
    40
100
AcDbLine
 10
193.939238656
 20
441.7282608312
 30
0.0
 11
193.939238656
 21
419.7282608312
 31
0.0
  0
LINE
  5
563
330
1F
100
AcDbEntity
  8
0
  6
Continuous
 62
     7
370
    40
100
AcDbLine
 10
173.939238656
 20
419.7282608312
 30
0.0
 11
173.939238656
 21
441.7282608312
 31
0.0
  0
LINE
  5
564
330
1F
100
AcDbEntity
  8
0
  6
Continuous
 62
     7
370
    40
100
AcDbLine
 10
216.939238656
 20
461.7282608312
 30
0.0
 11
213.939238656
 21
461.7282608312
 31
0.0
  0
LINE
  5
565
330
1F
100
AcDbEntity
  8
0
  6
Continuous
 62
     7
370
    40
100
AcDbLine
 10
213.939238656
 20
481.7282608312
 30
0.0
 11
216.939238656
 21
481.7282608312
 31
0.0
  0
ARC
  5
566
330
1F
100
AcDbEntity
  8
0
  6
Continuous
 62
     7
370
    40
100
AcDbCircle
 10
583.939238656
 20
441.7282608312
 30
0.0
 40
20.0
100
AcDbArc
 50
0.0
 51
90.0
  0
ARC
  5
567
330
1F
100
AcDbEntity
  8
0
  6
Continuous
 62
     7
370
    40
100
AcDbCircle
 10
583.939238656
 20
441.7282608312
 30
0.0
 40
40.00000000000006
100
AcDbArc
 50
0.0
 51
90.0
  0
LINE
  5
568
330
1F
100
AcDbEntity
  8
0
  6
Continuous
 62
     7
370
    40
100
AcDbLine
 10
623.939238656
 20
419.7282608312
 30
0.0
 11
623.939238656
 21
441.7282608312
 31
0.0
  0
LINE
  5
569
330
1F
100
AcDbEntity
  8
0
  6
Continuous
 62
     7
370
    40
100
AcDbLine
 10
603.939238656
 20
419.7282608312
 30
0.0
 11
603.939238656
 21
441.7282608312
 31
0.0
  0
LINE
  5
56A
330
1F
100
AcDbEntity
  8
0
  6
Continuous
 62
     7
370
    40
100
AcDbLine
 10
583.939238656
 20
461.7282608312
 30
0.0
 11
580.939238656
 21
461.7282608312
 31
0.0
  0
LINE
  5
56B
330
1F
100
AcDbEntity
  8
0
  6
Continuous
 62
     7
370
    40
100
AcDbLine
 10
580.939238656
 20
481.7282608312
 30
0.0
 11
583.939238656
 21
481.7282608312
 31
0.0
  0
LINE
  5
56C
330
1F
100
AcDbEntity
  8
0
  6
Continuous
 62
     7
370
    40
100
AcDbLine
 10
193.939238656
 20
413.7282608312
 30
0.0
 11
173.939238656
 21
413.7282608312
 31
0.0
  0
LINE
  5
56D
330
1F
100
AcDbEntity
  8
0
  6
Continuous
 62
     7
370
    40
100
AcDbLine
 10
173.939238656
 20
413.7282608312
 30
0.0
 11
173.939238656
 21
419.7282608312
 31
0.0
  0
LINE
  5
56E
330
1F
100
AcDbEntity
  8
0
  6
Continuous
 62
     7
370
    40
100
AcDbLine
 10
193.939238656
 20
419.7282608312
 30
0.0
 11
193.939238656
 21
413.7282608312
 31
0.0
  0
LINE
  5
56F
330
1F
100
AcDbEntity
  8
0
  6
Continuous
 62
     7
370
    40
100
AcDbLine
 10
623.939238656
 20
413.7282608312
 30
0.0
 11
603.939238656
 21
413.7282608312
 31
0.0
  0
LINE
  5
570
330
1F
100
AcDbEntity
  8
0
  6
Continuous
 62
     7
370
    40
100
AcDbLine
 10
623.939238656
 20
419.7282608312
 30
0.0
 11
623.939238656
 21
413.7282608312
 31
0.0
  0
LINE
  5
571
330
1F
100
AcDbEntity
  8
0
  6
Continuous
 62
     7
370
    40
100
AcDbLine
 10
603.939238656
 20
413.7282608312
 30
0.0
 11
603.939238656
 21
419.7282608312
 31
0.0
  0
LINE
  5
572
330
1F
100
AcDbEntity
  8
0
  6
Continuous
 62
     8
370
     0
100
AcDbLine
 10
230.4387274252
 20
449.3377581875
 30
0.0
 11
358.4397498868
 21
449.3377581875
 31
0.0
  0
LINE
  5
573
330
1F
100
AcDbEntity
  8
0
  6
Continuous
 62
     8
370
     0
100
AcDbLine
 10
232.7748814964
 20
445.9143815889
 30
0.0
 11
356.1035958156
 21
445.9143815889
 31
0.0
  0
LINE
  5
574
330
1F
100
AcDbEntity
  8
0
  6
Continuous
 62
     8
370
     0
100
AcDbLine
 10
235.2114672404
 20
415.7702776379
 30
0.0
 11
353.6670100716
 21
415.7702776379
 31
0.0
  0
LINE
  5
575
330
1F
100
AcDbEntity
  8
0
  6
Continuous
 62
     8
370
     0
100
AcDbLine
 10
462.7899418041
 20
449.3377581875
 30
0.0
 11
567.4397498868
 21
449.3377581875
 31
0.0
  0
LINE
  5
576
330
1F
100
AcDbEntity
  8
0
  6
Continuous
 62
     8
370
     0
100
AcDbLine
 10
439.4387274252
 20
449.3377581875
 30
0.0
 11
462.7899418041
 21
449.3377581875
 31
0.0
  0
LINE
  5
577
330
1F
100
AcDbEntity
  8
0
  6
Continuous
 62
     8
370
     0
100
AcDbLine
 10
464.2737271443
 20
445.9143815889
 30
0.0
 11
565.1035958156
 21
445.9143815889
 31
0.0
  0
LINE
  5
578
330
1F
100
AcDbEntity
  8
0
  6
Continuous
 62
     8
370
     0
100
AcDbLine
 10
441.7748814964
 20
445.9143815889
 30
0.0
 11
464.2737271443
 21
445.9143815889
 31
0.0
  0
LINE
  5
579
330
1F
100
AcDbEntity
  8
0
  6
Continuous
 62
     8
370
     0
100
AcDbLine
 10
465.8213006763
 20
415.7702776379
 30
0.0
 11
562.6670100716
 21
415.7702776379
 31
0.0
  0
LINE
  5
57A
330
1F
100
AcDbEntity
  8
0
  6
Continuous
 62
     8
370
     0
100
AcDbLine
 10
444.2114672404
 20
415.7702776379
 30
0.0
 11
465.8213006763
 21
415.7702776379
 31
0.0
  0
LINE
  5
57B
330
1F
100
AcDbEntity
  8
0
  6
Continuous
 62
     8
370
     0
100
AcDbLine
 10
294.439238656
 20
224.1187634749
 30
0.0
 11
230.4387274252
 21
224.1187634749
 31
0.0
  0
LINE
  5
57C
330
1F
100
AcDbEntity
  8
0
  6
Continuous
 62
     8
370
     0
100
AcDbLine
 10
358.4397498868
 20
224.1187634749
 30
0.0
 11
294.439238656
 21
224.1187634749
 31
0.0
  0
LINE
  5
57D
330
1F
100
AcDbEntity
  8
0
  6
Continuous
 62
     8
370
     0
100
AcDbLine
 10
294.439238656
 20
227.5421400735
 30
0.0
 11
232.7748814964
 21
227.5421400735
 31
0.0
  0
LINE
  5
57E
330
1F
100
AcDbEntity
  8
0
  6
Continuous
 62
     8
370
     0
100
AcDbLine
 10
356.1035958156
 20
227.5421400735
 30
0.0
 11
294.439238656
 21
227.5421400735
 31
0.0
  0
LINE
  5
57F
330
1F
100
AcDbEntity
  8
0
  6
Continuous
 62
     8
370
     0
100
AcDbLine
 10
294.439238656
 20
257.6862440245
 30
0.0
 11
235.2114672404
 21
257.6862440245
 31
0.0
  0
LINE
  5
580
330
1F
100
AcDbEntity
  8
0
  6
Continuous
 62
     8
370
     0
100
AcDbLine
 10
353.6670100716
 20
257.6862440245
 30
0.0
 11
294.439238656
 21
257.6862440245
 31
0.0
  0
LINE
  5
581
330
1F
100
AcDbEntity
  8
0
  6
Continuous
 62
     8
370
     0
100
AcDbLine
 10
503.439238656
 20
224.1187634749
 30
0.0
 11
439.4387274252
 21
224.1187634749
 31
0.0
  0
LINE
  5
582
330
1F
100
AcDbEntity
  8
0
  6
Continuous
 62
     8
370
     0
100
AcDbLine
 10
567.4397498868
 20
224.1187634749
 30
0.0
 11
503.439238656
 21
224.1187634749
 31
0.0
  0
LINE
  5
583
330
1F
100
AcDbEntity
  8
0
  6
Continuous
 62
     8
370
     0
100
AcDbLine
 10
503.439238656
 20
227.5421400735
 30
0.0
 11
441.7748814964
 21
227.5421400735
 31
0.0
  0
LINE
  5
584
330
1F
100
AcDbEntity
  8
0
  6
Continuous
 62
     8
370
     0
100
AcDbLine
 10
565.1035958156
 20
227.5421400735
 30
0.0
 11
503.439238656
 21
227.5421400735
 31
0.0
  0
LINE
  5
585
330
1F
100
AcDbEntity
  8
0
  6
Continuous
 62
     8
370
     0
100
AcDbLine
 10
503.439238656
 20
257.6862440245
 30
0.0
 11
444.2114672404
 21
257.6862440245
 31
0.0
  0
LINE
  5
586
330
1F
100
AcDbEntity
  8
0
  6
Continuous
 62
     8
370
     0
100
AcDbLine
 10
562.6670100716
 20
257.6862440245
 30
0.0
 11
503.439238656
 21
257.6862440245
 31
0.0
  0
LINE
  5
587
330
1F
100
AcDbEntity
  8
0
  6
Continuous
 62
     8
370
     0
100
AcDbLine
 10
382.7895289744
 20
385.5824510165
 30
0.0
 11
377.7386358769
 21
393.7282608312
 31
0.0
  0
LINE
  5
588
330
1F
100
AcDbEntity
  8
0
  6
Continuous
 62
     8
370
     0
100
AcDbLine
 10
382.7895289744
 20
287.8740706459
 30
0.0
 11
377.7386358769
 21
279.7282608312
 31
0.0
  0
LINE
  5
589
330
1F
100
AcDbEntity
  8
0
  6
Continuous
 62
     8
370
     0
100
AcDbLine
 10
415.0889483376
 20
385.5824510165
 30
0.0
 11
420.139841435
 21
393.7282608312
 31
0.0
  0
LINE
  5
58A
330
1F
100
AcDbEntity
  8
0
  6
Continuous
 62
     8
370
     0
100
AcDbLine
 10
415.0889483376
 20
287.8740706459
 30
0.0
 11
420.139841435
 21
279.7282608312
 31
0.0
  0
LINE
  5
58B
330
1F
100
AcDbEntity
  8
0
  6
Continuous
 62
     8
370
     0
100
AcDbLine
 10
253.939238656
 20
211.7282608312
 30
0.0
 11
253.939238656
 21
191.7282608312
 31
0.0
  0
LINE
  5
58C
330
1F
100
AcDbEntity
  8
0
  6
Continuous
 62
     8
370
     0
100
AcDbLine
 10
543.939238656
 20
211.7282608312
 30
0.0
 11
543.939238656
 21
191.7282608312
 31
0.0
  0
LINE
  5
58D
330
1F
100
AcDbEntity
  8
0
  6
Continuous
 62
     8
370
     0
100
AcDbLine
 10
580.939238656
 20
211.7282608312
 30
0.0
 11
580.939238656
 21
191.7282608312
 31
0.0
  0
LINE
  5
58E
330
1F
100
AcDbEntity
  8
0
  6
Continuous
 62
     8
370
     0
100
AcDbLine
 10
216.939238656
 20
211.7282608312
 30
0.0
 11
216.939238656
 21
191.7282608312
 31
0.0
  0
LINE
  5
58F
330
1F
100
AcDbEntity
  8
0
  6
Continuous
 62
     8
370
     0
100
AcDbLine
 10
623.939238656
 20
253.7282608312
 30
0.0
 11
603.939238656
 21
253.7282608312
 31
0.0
  0
LINE
  5
590
330
1F
100
AcDbEntity
  8
0
  6
Continuous
 62
     8
370
     0
100
AcDbLine
 10
193.939238656
 20
253.7282608312
 30
0.0
 11
173.939238656
 21
253.7282608312
 31
0.0
  0
LINE
  5
591
330
1F
100
AcDbEntity
  8
0
  6
Continuous
 62
     8
370
     0
100
AcDbLine
 10
543.939238656
 20
461.7282608312
 30
0.0
 11
543.939238656
 21
481.7282608312
 31
0.0
  0
LINE
  5
592
330
1F
100
AcDbEntity
  8
0
  6
Continuous
 62
     8
370
     0
100
AcDbLine
 10
253.939238656
 20
461.7282608312
 30
0.0
 11
253.939238656
 21
481.7282608312
 31
0.0
  0
LINE
  5
593
330
1F
100
AcDbEntity
  8
0
  6
Continuous
 62
     8
370
     0
100
AcDbLine
 10
216.939238656
 20
461.7282608312
 30
0.0
 11
216.939238656
 21
481.7282608312
 31
0.0
  0
LINE
  5
594
330
1F
100
AcDbEntity
  8
0
  6
Continuous
 62
     8
370
     0
100
AcDbLine
 10
580.939238656
 20
461.7282608312
 30
0.0
 11
580.939238656
 21
481.7282608312
 31
0.0
  0
LINE
  5
595
330
1F
100
AcDbEntity
  8
0
  6
Continuous
 62
     8
370
     0
100
AcDbLine
 10
173.939238656
 20
419.7282608312
 30
0.0
 11
193.939238656
 21
419.7282608312
 31
0.0
  0
LINE
  5
596
330
1F
100
AcDbEntity
  8
0
  6
Continuous
 62
     8
370
     0
100
AcDbLine
 10
603.939238656
 20
419.7282608312
 30
0.0
 11
623.939238656
 21
419.7282608312
 31
0.0
  0
DIMENSION
  5
597
330
1F
100
AcDbEntity
  8
SLD-0
100
AcDbDimension
280
     0
  2
_D_12
 10
415.439238656
 20
332.6942329186
 30
0.0
 11
434.6218805779
 21
332.6942329186
 31
0.0
 70
   160
  1
<>
 71
     2
 42
-1.0
 73
     0
 74
     0
 75
     0
  3
SLDDIMSTYLE2
100
AcDbAlignedDimension
 13
382.439238656
 23
290.2282608312
 33
0.0
 14
415.439238656
 24
290.2282608312
 34
0.0
100
AcDbRotatedDimension
  0
LINE
  5
5A1
330
1F
100
AcDbEntity
  8
SLD-0
  6
CENTERX2
370
     0
100
AcDbLine
 10
398.939238656
 20
158.5979473105
 30
0.0
 11
398.939238656
 21
513.8415973445
 31
0.0
  0
LINE
  5
5A2
330
1F
100
AcDbEntity
  8
SLD-0
  6
CENTERX2
370
     0
100
AcDbLine
 10
503.439238656
 20
462.7282608312
 30
0.0
 11
503.439238656
 21
409.7282608312
 31
0.0
  0
LINE
  5
5A3
330
1F
100
AcDbEntity
  8
SLD-0
  6
CENTERX2
370
     0
100
AcDbLine
 10
294.439238656
 20
462.7282608312
 30
0.0
 11
294.439238656
 21
409.7282608312
 31
0.0
  0
LINE
  5
5A4
330
1F
100
AcDbEntity
  8
SLD-0
  6
CENTERX2
370
     0
100
AcDbLine
 10
294.439238656
 20
210.7282608312
 30
0.0
 11
294.439238656
 21
263.7282608312
 31
0.0
  0
LINE
  5
5A5
330
1F
100
AcDbEntity
  8
SLD-0
  6
CENTERX2
370
     0
100
AcDbLine
 10
503.439238656
 20
210.7282608312
 30
0.0
 11
503.439238656
 21
263.7282608312
 31
0.0
  0
ENDSEC
  0
SECTION
  2
OBJECTS
  0
DICTIONARY
  5
C
330
0
100
AcDbDictionary
281
     1
  3
ACAD_DETAILVIEWSTYLE
350
5AD
  3
ACAD_GROUP
350
D
  3
ACAD_LAYOUT
350
1A
  3
ACAD_MATERIAL
350
43
  3
ACAD_MLEADERSTYLE
350
6B
  3
ACAD_MLINESTYLE
350
17
  3
ACAD_PLOTSETTINGS
350
19
  3
ACAD_PLOTSTYLENAME
350
E
  3
ACAD_SCALELIST
350
47
  3
ACAD_SECTIONVIEWSTYLE
350
5AE
  3
ACAD_TABLESTYLE
350
69
  3
ACAD_VISUALSTYLE
350
2A
  3
ACDB_RECOMPOSE_DATA
350
5AA
  3
AcDbVariableDictionary
350
5A6
  0
SUN
  5
6D
330
29
100
AcDbSun
 90
        1
290
     0
 63
     7
421
 16777215
 40
1.0
291
     1
 91
  2455826
 92
 54000000
292
     0
 70
     2
 71
   256
280
     1
  0
DICTIONARY
  5
5AD
102
{ACAD_REACTORS
330
C
102
}
330
C
100
AcDbDictionary
281
     1
  0
DICTIONARY
  5
D
102
{ACAD_REACTORS
330
C
102
}
330
C
100
AcDbDictionary
281
     1
  0
DICTIONARY
  5
1A
102
{ACAD_REACTORS
330
C
102
}
330
C
100
AcDbDictionary
281
     1
  3
Layout1
350
1E
  3
Layout2
350
26
  3
Model
350
22
  0
DICTIONARY
  5
43
102
{ACAD_REACTORS
330
C
102
}
330
C
100
AcDbDictionary
281
     1
  3
ByBlock
350
45
  3
ByLayer
350
44
  3
Global
350
46
  0
DICTIONARY
  5
6B
102
{ACAD_REACTORS
330
C
102
}
330
C
100
AcDbDictionary
281
     1
  3
Standard
350
6C
  0
DICTIONARY
  5
17
102
{ACAD_REACTORS
330
C
102
}
330
C
100
AcDbDictionary
281
     1
  3
Standard
350
18
  0
DICTIONARY
  5
19
102
{ACAD_REACTORS
330
C
102
}
330
C
100
AcDbDictionary
281
     1
  0
ACDBDICTIONARYWDFLT
  5
E
102
{ACAD_REACTORS
330
C
102
}
330
C
100
AcDbDictionary
281
     1
  3
Normal
350
F
100
AcDbDictionaryWithDefault
340
F
  0
DICTIONARY
  5
47
102
{ACAD_REACTORS
330
C
102
}
330
C
100
AcDbDictionary
281
     1
  3
A0
350
48
  3
A1
350
49
  3
A2
350
4A
  3
A3
350
4B
  3
A4
350
4C
  3
A5
350
4D
  3
A6
350
4E
  3
A7
350
4F
  3
A8
350
50
  3
A9
350
51
  3
B0
350
52
  3
B1
350
53
  3
B2
350
54
  3
B3
350
55
  3
B4
350
56
  3
B5
350
57
  3
B6
350
58
  3
B7
350
59
  3
B8
350
5A
  3
B9
350
5B
  3
C0
350
5C
  3
C1
350
5D
  3
C2
350
5E
  3
C3
350
5F
  3
C4
350
60
  3
C5
350
61
  3
C6
350
62
  3
C7
350
63
  3
C8
350
64
  3
C9
350
65
  3
D0
350
66
  3
D1
350
67
  3
D2
350
68
  0
DICTIONARY
  5
5AE
102
{ACAD_REACTORS
330
C
102
}
330
C
100
AcDbDictionary
281
     1
  0
DICTIONARY
  5
69
102
{ACAD_REACTORS
330
C
102
}
330
C
100
AcDbDictionary
281
     1
  3
Standard
350
6A
  0
DICTIONARY
  5
2A
102
{ACAD_REACTORS
330
C
102
}
330
C
100
AcDbDictionary
281
     1
  3
2dWireframe
350
2F
  3
Basic
350
32
  3
Brighten
350
36
  3
ColorChange
350
3A
  3
Conceptual
350
34
  3
Dim
350
35
  3
EdgeColorOff
350
3D
  3
Facepattern
350
39
  3
Flat
350
2B
  3
FlatWithEdges
350
2C
  3
Gouraud
350
2D
  3
GouraudWithEdges
350
2E
  3
Hidden
350
31
  3
JitterOff
350
3B
  3
Linepattern
350
38
  3
OverhangOff
350
3C
  3
Realistic
350
33
  3
Shaded
350
42
  3
Shaded with edges
350
41
  3
Shades of Gray
350
3E
  3
Sketchy
350
3F
  3
Thicken
350
37
  3
Wireframe
350
30
  3
X-Ray
350
40
  0
XRECORD
  5
5AA
102
{ACAD_REACTORS
330
C
102
}
330
C
100
AcDbXrecord
280
     1
 90
        1
330
6A
  0
DICTIONARY
  5
5A6
102
{ACAD_REACTORS
330
C
102
}
330
C
100
AcDbDictionary
281
     1
  3
CANNOSCALE
350
5A7
  3
CMLEADERSTYLE
350
5AC
  3
CTABLESTYLE
350
5AB
  0
LAYOUT
  5
1E
102
{ACAD_REACTORS
330
1A
102
}
330
1A
100
AcDbPlotSettings
  1

  2
none_device
  4

  6

 40
0.0
 41
0.0
 42
0.0
 43
0.0
 44
0.0
 45
0.0
 46
0.0
 47
0.0
 48
0.0
 49
0.0
140
0.0
141
0.0
142
1.0
143
1.0
 70
   688
 72
     1
 73
     0
 74
     5
  7

 75
    16
 76
     0
 77
     2
 78
   300
147
1.0
148
0.0
149
0.0
100
AcDbLayout
  1
Layout1
 70
     1
 71
     1
 10
0.0
 20
0.0
 11
420.0
 21
297.0
 12
0.0
 22
0.0
 32
0.0
 14
1.0000000000E+20
 24
1.0000000000E+20
 34
1.0000000000E+20
 15
-1.0000000000E+20
 25
-1.0000000000E+20
 35
-1.0000000000E+20
146
0.0
 13
0.0
 23
0.0
 33
0.0
 16
1.0
 26
0.0
 36
0.0
 17
0.0
 27
1.0
 37
0.0
 76
     0
330
1B
  0
LAYOUT
  5
26
102
{ACAD_REACTORS
330
1A
102
}
330
1A
100
AcDbPlotSettings
  1

  2
none_device
  4

  6

 40
0.0
 41
0.0
 42
0.0
 43
0.0
 44
0.0
 45
0.0
 46
0.0
 47
0.0
 48
0.0
 49
0.0
140
0.0
141
0.0
142
1.0
143
1.0
 70
   688
 72
     1
 73
     0
 74
     5
  7

 75
    16
 76
     0
 77
     2
 78
   300
147
1.0
148
0.0
149
0.0
100
AcDbLayout
  1
Layout2
 70
     1
 71
     2
 10
0.0
 20
0.0
 11
0.0
 21
0.0
 12
0.0
 22
0.0
 32
0.0
 14
0.0
 24
0.0
 34
0.0
 15
0.0
 25
0.0
 35
0.0
146
0.0
 13
0.0
 23
0.0
 33
0.0
 16
1.0
 26
0.0
 36
0.0
 17
0.0
 27
1.0
 37
0.0
 76
     0
330
23
  0
LAYOUT
  5
22
102
{ACAD_REACTORS
330
1A
102
}
330
1A
100
AcDbPlotSettings
  1

  2
none_device
  4
Letter_(8.50_x_11.00_Inches)
  6

 40
6.35
 41
6.35
 42
6.35000508
 43
6.35000508
 44
215.9
 45
279.4
 46
0.0
 47
0.0
 48
0.0
 49
0.0
140
0.0
141
0.0
142
1.0
143
1.0
 70
  1712
 72
     1
 73
     0
 74
     0
  7

 75
     0
 76
     0
 77
     2
 78
   300
147
1.0
148
0.0
149
0.0
100
AcDbLayout
  1
Model
 70
     1
 71
     0
 10
0.0
 20
0.0
 11
1682.0
 21
1188.0
 12
0.0
 22
0.0
 32
0.0
 14
0.0
 24
0.0
 34
0.0
 15
1682.0
 25
1188.0
 35
0.0
146
0.0
 13
0.0
 23
0.0
 33
0.0
 16
1.0
 26
0.0
 36
0.0
 17
0.0
 27
1.0
 37
0.0
 76
     0
330
1F
331
29
  0
MATERIAL
  5
45
102
{ACAD_REACTORS
330
43
102
}
330
43
100
AcDbMaterial
  1
ByBlock
 72
     1
 94
      127
  0
MATERIAL
  5
44
102
{ACAD_REACTORS
330
43
102
}
330
43
100
AcDbMaterial
  1
ByLayer
 72
     1
 94
      127
  0
MATERIAL
  5
46
102
{ACAD_REACTORS
330
43
102
}
330
43
100
AcDbMaterial
  1
Global
 72
     1
 94
      127
  0
MLEADERSTYLE
  5
6C
102
{ACAD_REACTORS
330
6B
102
}
330
6B
100
AcDbMLeaderStyle
179
     2
170
     2
171
     1
172
     0
 90
        2
 40
0.0
 41
0.0
173
     1
 91
-1056964608
340
14
 92
       -2
290
     1
 42
2.0
291
     1
 43
8.0
  3
Standard
341
0
 44
4.0
300

342
11
174
     1
178
     6
175
     1
176
     0
 93
-1056964608
 45
4.0
292
     0
297
     0
 46
4.0
343
0
 94
-1056964608
 47
1.0
 49
1.0
140
1.0
293
     1
141
0.0
294
     1
177
     0
142
1.0
295
     0
296
     0
143
3.75
271
     0
272
     9
273
     9
298
     0
  0
MLINESTYLE
  5
18
102
{ACAD_REACTORS
330
17
102
}
330
17
100
AcDbMlineStyle
  2
Standard
 70
     0
  3

 62
   256
 51
90.0
 52
90.0
 71
     2
 49
0.5
 62
   256
  6
BYLAYER
 49
-0.5
 62
   256
  6
BYLAYER
  0
ACDBPLACEHOLDER
  5
F
102
{ACAD_REACTORS
330
E
102
}
330
E
  0
SCALE
  5
48
102
{ACAD_REACTORS
330
47
102
}
330
47
100
AcDbScale
 70
     0
300
1:1
140
1.0
141
1.0
290
     1
  0
SCALE
  5
49
102
{ACAD_REACTORS
330
47
102
}
330
47
100
AcDbScale
 70
     0
300
1:2
140
1.0
141
2.0
290
     0
  0
SCALE
  5
4A
102
{ACAD_REACTORS
330
47
102
}
330
47
100
AcDbScale
 70
     0
300
1:4
140
1.0
141
4.0
290
     0
  0
SCALE
  5
4B
102
{ACAD_REACTORS
330
47
102
}
330
47
100
AcDbScale
 70
     0
300
1:5
140
1.0
141
5.0
290
     0
  0
SCALE
  5
4C
102
{ACAD_REACTORS
330
47
102
}
330
47
100
AcDbScale
 70
     0
300
1:8
140
1.0
141
8.0
290
     0
  0
SCALE
  5
4D
102
{ACAD_REACTORS
330
47
102
}
330
47
100
AcDbScale
 70
     0
300
1:10
140
1.0
141
10.0
290
     0
  0
SCALE
  5
4E
102
{ACAD_REACTORS
330
47
102
}
330
47
100
AcDbScale
 70
     0
300
1:16
140
1.0
141
16.0
290
     0
  0
SCALE
  5
4F
102
{ACAD_REACTORS
330
47
102
}
330
47
100
AcDbScale
 70
     0
300
1:20
140
1.0
141
20.0
290
     0
  0
SCALE
  5
50
102
{ACAD_REACTORS
330
47
102
}
330
47
100
AcDbScale
 70
     0
300
1:30
140
1.0
141
30.0
290
     0
  0
SCALE
  5
51
102
{ACAD_REACTORS
330
47
102
}
330
47
100
AcDbScale
 70
     0
300
1:40
140
1.0
141
40.0
290
     0
  0
SCALE
  5
52
102
{ACAD_REACTORS
330
47
102
}
330
47
100
AcDbScale
 70
     0
300
1:50
140
1.0
141
50.0
290
     0
  0
SCALE
  5
53
102
{ACAD_REACTORS
330
47
102
}
330
47
100
AcDbScale
 70
     0
300
1:100
140
1.0
141
100.0
290
     0
  0
SCALE
  5
54
102
{ACAD_REACTORS
330
47
102
}
330
47
100
AcDbScale
 70
     0
300
2:1
140
2.0
141
1.0
290
     0
  0
SCALE
  5
55
102
{ACAD_REACTORS
330
47
102
}
330
47
100
AcDbScale
 70
     0
300
4:1
140
4.0
141
1.0
290
     0
  0
SCALE
  5
56
102
{ACAD_REACTORS
330
47
102
}
330
47
100
AcDbScale
 70
     0
300
8:1
140
8.0
141
1.0
290
     0
  0
SCALE
  5
57
102
{ACAD_REACTORS
330
47
102
}
330
47
100
AcDbScale
 70
     0
300
10:1
140
10.0
141
1.0
290
     0
  0
SCALE
  5
58
102
{ACAD_REACTORS
330
47
102
}
330
47
100
AcDbScale
 70
     0
300
100:1
140
100.0
141
1.0
290
     0
  0
SCALE
  5
59
102
{ACAD_REACTORS
330
47
102
}
330
47
100
AcDbScale
 70
     0
300
1/128" = 1'-0"
140
0.0078125
141
12.0
290
     0
  0
SCALE
  5
5A
102
{ACAD_REACTORS
330
47
102
}
330
47
100
AcDbScale
 70
     0
300
1/64" = 1'-0"
140
0.015625
141
12.0
290
     0
  0
SCALE
  5
5B
102
{ACAD_REACTORS
330
47
102
}
330
47
100
AcDbScale
 70
     0
300
1/32" = 1'-0"
140
0.03125
141
12.0
290
     0
  0
SCALE
  5
5C
102
{ACAD_REACTORS
330
47
102
}
330
47
100
AcDbScale
 70
     0
300
1/16" = 1'-0"
140
0.0625
141
12.0
290
     0
  0
SCALE
  5
5D
102
{ACAD_REACTORS
330
47
102
}
330
47
100
AcDbScale
 70
     0
300
3/32" = 1'-0"
140
0.09375
141
12.0
290
     0
  0
SCALE
  5
5E
102
{ACAD_REACTORS
330
47
102
}
330
47
100
AcDbScale
 70
     0
300
1/8" = 1'-0"
140
0.125
141
12.0
290
     0
  0
SCALE
  5
5F
102
{ACAD_REACTORS
330
47
102
}
330
47
100
AcDbScale
 70
     0
300
3/16" = 1'-0"
140
0.1875
141
12.0
290
     0
  0
SCALE
  5
60
102
{ACAD_REACTORS
330
47
102
}
330
47
100
AcDbScale
 70
     0
300
1/4" = 1'-0"
140
0.25
141
12.0
290
     0
  0
SCALE
  5
61
102
{ACAD_REACTORS
330
47
102
}
330
47
100
AcDbScale
 70
     0
300
3/8" = 1'-0"
140
0.375
141
12.0
290
     0
  0
SCALE
  5
62
102
{ACAD_REACTORS
330
47
102
}
330
47
100
AcDbScale
 70
     0
300
1/2" = 1'-0"
140
0.5
141
12.0
290
     0
  0
SCALE
  5
63
102
{ACAD_REACTORS
330
47
102
}
330
47
100
AcDbScale
 70
     0
300
3/4" = 1'-0"
140
0.75
141
12.0
290
     0
  0
SCALE
  5
64
102
{ACAD_REACTORS
330
47
102
}
330
47
100
AcDbScale
 70
     0
300
1" = 1'-0"
140
1.0
141
12.0
290
     0
  0
SCALE
  5
65
102
{ACAD_REACTORS
330
47
102
}
330
47
100
AcDbScale
 70
     0
300
1-1/2" = 1'-0"
140
1.5
141
12.0
290
     0
  0
SCALE
  5
66
102
{ACAD_REACTORS
330
47
102
}
330
47
100
AcDbScale
 70
     0
300
3" = 1'-0"
140
3.0
141
12.0
290
     0
  0
SCALE
  5
67
102
{ACAD_REACTORS
330
47
102
}
330
47
100
AcDbScale
 70
     0
300
6" = 1'-0"
140
6.0
141
12.0
290
     0
  0
SCALE
  5
68
102
{ACAD_REACTORS
330
47
102
}
330
47
100
AcDbScale
 70
     0
300
1'-0" = 1'-0"
140
12.0
141
12.0
290
     0
  0
TABLESTYLE
  5
6A
102
{ACAD_REACTORS
330
69
102
}
102
{ACAD_XDICTIONARY
360
5A8
102
}
330
69
100
AcDbTableStyle
  3
Standard
 70
     0
 71
     0
 40
0.06
 41
0.06
280
     0
281
     0
  7
STANDARD
140
4.5
170
     2
 62
     0
 63
   257
283
     0
 90
        4
 91
        0
  1

274
    -2
284
     1
 64
     0
275
    -2
285
     1
 65
     0
276
    -2
286
     1
 66
     0
277
    -2
287
     1
 67
     0
278
    -2
288
     1
 68
     0
279
    -2
289
     1
 69
     0
  7
STANDARD
140
6.0
170
     5
 62
     0
 63
   257
283
     0
 90
        4
 91
        0
  1

274
    -2
284
     1
 64
     0
275
    -2
285
     1
 65
     0
276
    -2
286
     1
 66
     0
277
    -2
287
     1
 67
     0
278
    -2
288
     1
 68
     0
279
    -2
289
     1
 69
     0
  7
STANDARD
140
4.5
170
     5
 62
     0
 63
   257
283
     0
 90
        4
 91
        0
  1

274
    -2
284
     1
 64
     0
275
    -2
285
     1
 65
     0
276
    -2
286
     1
 66
     0
277
    -2
287
     1
 67
     0
278
    -2
288
     1
 68
     0
279
    -2
289
     1
 69
     0
  0
VISUALSTYLE
  5
2F
102
{ACAD_REACTORS
330
2A
102
}
330
2A
100
AcDbVisualStyle
  2
2dWireframe
 70
     4
177
     3
291
     0
 70
    58
 90
        0
176
     1
 90
        2
176
     1
 90
        0
176
     1
 90
        0
176
     1
 40
0.6
176
     1
 40
30.0
176
     1
 62
     7
420
 16777215
176
     1
 90
        1
176
     1
 90
        4
176
     1
 62
     7
176
     1
 62
   257
176
     1
 90
        1
176
     1
 90
        1
176
     1
 40
1.0
176
     1
 90
        0
176
     1
 62
   257
176
     1
 40
1.0
176
     1
 90
        1
176
     1
 90
        6
176
     1
 90
        2
176
     1
 62
     7
176
     1
 90
        5
176
     1
 90
        0
176
     1
 90
        0
176
     1
290
     0
176
     1
 90
        1
176
     1
 40
0.0
176
     1
 90
        0
176
     1
290
     1
176
     1
290
     1
176
     1
290
     0
176
     1
290
     0
176
     1
290
     0
176
     1
290
     0
176
     1
290
     0
176
     1
290
     0
176
     1
290
     0
176
     1
 90
       50
176
     1
 40
0.0
176
     1
 40
1.0
176
     1
 90
        0
176
     1
 62
    18
420
        0
176
     1
 90
       50
176
     1
 90
        3
176
     1
 62
     5
420
      255
176
     1
290
     0
176
     1
 90
       50
176
     1
 90
       50
176
     1
 90
       50
176
     1
290
     0
176
     1
 90
       50
176
     1
 62
   256
176
     0
 40
1.0
176
     0
 90
        2
176
     1
  1
strokes_ogs.tif
176
     1
290
     0
176
     1
 40
1.0
176
     1
 40
1.0
176
     1
  0
VISUALSTYLE
  5
32
102
{ACAD_REACTORS
330
2A
102
}
330
2A
100
AcDbVisualStyle
  2
Basic
 70
     7
177
     3
291
     1
 70
    58
 90
        1
176
     1
 90
        0
176
     1
 90
        1
176
     1
 90
        0
176
     1
 40
0.6
176
     1
 40
30.0
176
     1
 62
     7
420
 16777215
176
     1
 90
        0
176
     1
 90
        4
176
     1
 62
     7
176
     1
 62
   257
176
     1
 90
        1
176
     1
 90
        1
176
     1
 40
1.0
176
     1
 90
        8
176
     1
 62
     7
176
     1
 40
1.0
176
     1
 90
        1
176
     1
 90
        6
176
     1
 90
        2
176
     1
 62
     7
176
     1
 90
        5
176
     1
 90
        0
176
     1
 90
        0
176
     1
290
     0
176
     1
 90
        1
176
     1
 40
0.0
176
     1
 90
        0
176
     1
290
     0
176
     1
290
     1
176
     1
290
     1
176
     1
290
     0
176
     1
290
     0
176
     1
290
     0
176
     1
290
     0
176
     1
290
     0
176
     1
290
     0
176
     1
 90
       50
176
     1
 40
0.0
176
     1
 40
1.0
176
     1
 90
        0
176
     1
 62
    18
420
        0
176
     1
 90
       50
176
     1
 90
        3
176
     1
 62
     5
420
      255
176
     1
290
     0
176
     1
 90
       50
176
     1
 90
       50
176
     1
 90
       50
176
     1
290
     0
176
     1
 90
       50
176
     1
 62
   256
176
     0
 40
1.0
176
     0
 90
        2
176
     1
  1
strokes_ogs.tif
176
     1
290
     0
176
     1
 40
1.0
176
     1
 40
1.0
176
     1
  0
VISUALSTYLE
  5
36
102
{ACAD_REACTORS
330
2A
102
}
330
2A
100
AcDbVisualStyle
  2
Brighten
 70
    12
177
     3
291
     1
 70
    58
 90
        2
176
     1
 90
        2
176
     1
 90
        0
176
     1
 90
        0
176
     1
 40
0.6
176
     1
 40
30.0
176
     1
 62
     7
420
 16777215
176
     1
 90
        1
176
     1
 90
        4
176
     1
 62
     7
176
     1
 62
   257
176
     1
 90
        1
176
     1
 90
        1
176
     1
 40
1.0
176
     1
 90
        8
176
     1
 62
     7
176
     1
 40
1.0
176
     1
 90
        1
176
     1
 90
        6
176
     1
 90
        2
176
     1
 62
     7
176
     1
 90
        5
176
     1
 90
        0
176
     1
 90
        0
176
     1
290
     0
176
     1
 90
        1
176
     1
 40
50.0
176
     1
 90
        0
176
     1
290
     0
176
     1
290
     1
176
     1
290
     1
176
     1
290
     0
176
     1
290
     0
176
     1
290
     0
176
     1
290
     0
176
     1
290
     0
176
     1
290
     0
176
     1
 90
       50
176
     1
 40
0.0
176
     1
 40
1.0
176
     1
 90
        0
176
     1
 62
    18
420
        0
176
     1
 90
       50
176
     1
 90
        3
176
     1
 62
     5
420
      255
176
     1
290
     0
176
     1
 90
       50
176
     1
 90
       50
176
     1
 90
       50
176
     1
290
     0
176
     1
 90
       50
176
     1
 62
   256
176
     0
 40
1.0
176
     0
 90
        2
176
     1
  1
strokes_ogs.tif
176
     1
290
     0
176
     1
 40
1.0
176
     1
 40
1.0
176
     1
  0
VISUALSTYLE
  5
3A
102
{ACAD_REACTORS
330
2A
102
}
330
2A
100
AcDbVisualStyle
  2
ColorChange
 70
    16
177
     3
291
     1
 70
    58
 90
        2
176
     1
 90
        2
176
     1
 90
        3
176
     1
 90
        0
176
     1
 40
0.6
176
     1
 40
30.0
176
     1
 62
     8
420
  8421504
176
     1
 90
        1
176
     1
 90
        4
176
     1
 62
     7
176
     1
 62
   257
176
     1
 90
        1
176
     1
 90
        1
176
     1
 40
1.0
176
     1
 90
        8
176
     1
 62
     8
420
  8421504
176
     1
 40
1.0
176
     1
 90
        1
176
     1
 90
        6
176
     1
 90
        2
176
     1
 62
     7
176
     1
 90
        5
176
     1
 90
        0
176
     1
 90
        0
176
     1
290
     0
176
     1
 90
        1
176
     1
 40
0.0
176
     1
 90
        0
176
     1
290
     0
176
     1
290
     1
176
     1
290
     1
176
     1
290
     0
176
     1
290
     0
176
     1
290
     0
176
     1
290
     0
176
     1
290
     0
176
     1
290
     0
176
     1
 90
       50
176
     1
 40
0.0
176
     1
 40
1.0
176
     1
 90
        0
176
     1
 62
    18
420
        0
176
     1
 90
       50
176
     1
 90
        3
176
     1
 62
     5
420
      255
176
     1
290
     0
176
     1
 90
       50
176
     1
 90
       50
176
     1
 90
       50
176
     1
290
     0
176
     1
 90
       50
176
     1
 62
   256
176
     0
 40
1.0
176
     0
 90
        2
176
     1
  1
strokes_ogs.tif
176
     1
290
     0
176
     1
 40
1.0
176
     1
 40
1.0
176
     1
  0
VISUALSTYLE
  5
34
102
{ACAD_REACTORS
330
2A
102
}
330
2A
100
AcDbVisualStyle
  2
Conceptual
 70
     9
177
     3
291
     0
 70
    58
 90
        3
176
     1
 90
        2
176
     1
 90
        0
176
     1
 90
        0
176
     1
 40
0.6
176
     1
 40
30.0
176
     1
 62
     7
420
 16777215
176
     1
 90
        2
176
     1
 90
        2
176
     1
 62
     7
176
     1
 62
   257
176
     1
 90
        1
176
     1
 90
        1
176
     1
 40
179.0
176
     1
 90
        8
176
     1
 62
     7
176
     1
 40
1.0
176
     1
 90
        1
176
     1
 90
        6
176
     1
 90
        2
176
     1
 62
     7
176
     1
 90
        3
176
     1
 90
        0
176
     1
 90
        0
176
     1
290
     0
176
     1
 90
        1
176
     1
 40
0.0
176
     1
 90
        0
176
     1
290
     0
176
     1
290
     1
176
     1
290
     1
176
     1
290
     0
176
     1
290
     0
176
     1
290
     0
176
     1
290
     0
176
     1
290
     0
176
     1
290
     0
176
     1
 90
       50
176
     1
 40
0.0
176
     1
 40
1.0
176
     1
 90
        0
176
     1
 62
    18
420
        0
176
     1
 90
       50
176
     1
 90
        3
176
     1
 62
     5
420
      255
176
     1
290
     0
176
     1
 90
       50
176
     1
 90
       50
176
     1
 90
       50
176
     1
290
     0
176
     1
 90
       50
176
     1
 62
   256
176
     0
 40
1.0
176
     0
 90
        2
176
     1
  1
strokes_ogs.tif
176
     1
290
     0
176
     1
 40
1.0
176
     1
 40
1.0
176
     1
  0
VISUALSTYLE
  5
35
102
{ACAD_REACTORS
330
2A
102
}
330
2A
100
AcDbVisualStyle
  2
Dim
 70
    11
177
     3
291
     1
 70
    58
 90
        2
176
     1
 90
        2
176
     1
 90
        0
176
     1
 90
        0
176
     1
 40
0.6
176
     1
 40
30.0
176
     1
 62
     7
420
 16777215
176
     1
 90
        1
176
     1
 90
        4
176
     1
 62
     7
176
     1
 62
   257
176
     1
 90
        1
176
     1
 90
        1
176
     1
 40
1.0
176
     1
 90
        8
176
     1
 62
     7
176
     1
 40
1.0
176
     1
 90
        1
176
     1
 90
        6
176
     1
 90
        2
176
     1
 62
     7
176
     1
 90
        5
176
     1
 90
        0
176
     1
 90
        0
176
     1
290
     0
176
     1
 90
        1
176
     1
 40
-50.0
176
     1
 90
        0
176
     1
290
     0
176
     1
290
     1
176
     1
290
     1
176
     1
290
     0
176
     1
290
     0
176
     1
290
     0
176
     1
290
     0
176
     1
290
     0
176
     1
290
     0
176
     1
 90
       50
176
     1
 40
0.0
176
     1
 40
1.0
176
     1
 90
        0
176
     1
 62
    18
420
        0
176
     1
 90
       50
176
     1
 90
        3
176
     1
 62
     5
420
      255
176
     1
290
     0
176
     1
 90
       50
176
     1
 90
       50
176
     1
 90
       50
176
     1
290
     0
176
     1
 90
       50
176
     1
 62
   256
176
     0
 40
1.0
176
     0
 90
        2
176
     1
  1
strokes_ogs.tif
176
     1
290
     0
176
     1
 40
1.0
176
     1
 40
1.0
176
     1
  0
VISUALSTYLE
  5
3D
102
{ACAD_REACTORS
330
2A
102
}
330
2A
100
AcDbVisualStyle
  2
EdgeColorOff
 70
    22
177
     3
291
     1
 70
    58
 90
        2
176
     0
 90
        2
176
     0
 90
        0
176
     0
 90
        0
176
     0
 40
0.6
176
     0
 40
30.0
176
     0
 62
     7
420
 16777215
176
     0
 90
        1
176
     0
 90
        4
176
     0
 62
     7
176
     0
 62
   257
176
     0
 90
        1
176
     0
 90
        1
176
     0
 40
1.0
176
     0
 90
        8
176
     2
 62
     7
176
     0
 40
1.0
176
     0
 90
        1
176
     0
 90
        6
176
     0
 90
        2
176
     0
 62
     7
176
     0
 90
        5
176
     0
 90
        0
176
     0
 90
        0
176
     0
290
     0
176
     0
 90
        1
176
     0
 40
0.0
176
     0
 90
        0
176
     0
290
     0
176
     0
290
     1
176
     0
290
     1
176
     0
290
     0
176
     0
290
     0
176
     0
290
     0
176
     0
290
     0
176
     0
290
     0
176
     0
290
     0
176
     0
 90
       50
176
     0
 40
0.0
176
     0
 40
1.0
176
     0
 90
        0
176
     0
 62
    18
420
        0
176
     0
 90
       50
176
     0
 90
        3
176
     0
 62
     5
420
      255
176
     0
290
     0
176
     0
 90
       50
176
     0
 90
       50
176
     0
 90
       50
176
     0
290
     0
176
     0
 90
       50
176
     0
 62
   256
176
     0
 40
1.0
176
     0
 90
        2
176
     0
  1
strokes_ogs.tif
176
     0
290
     0
176
     0
 40
1.0
176
     0
 40
1.0
176
     0
  0
VISUALSTYLE
  5
39
102
{ACAD_REACTORS
330
2A
102
}
330
2A
100
AcDbVisualStyle
  2
Facepattern
 70
    15
177
     3
291
     1
 70
    58
 90
        2
176
     1
 90
        2
176
     1
 90
        0
176
     1
 90
        0
176
     1
 40
0.6
176
     1
 40
30.0
176
     1
 62
     7
420
 16777215
176
     1
 90
        1
176
     1
 90
        4
176
     1
 62
     7
176
     1
 62
   257
176
     1
 90
        1
176
     1
 90
        1
176
     1
 40
1.0
176
     1
 90
        8
176
     1
 62
     7
176
     1
 40
1.0
176
     1
 90
        1
176
     1
 90
        6
176
     1
 90
        2
176
     1
 62
     7
176
     1
 90
        5
176
     1
 90
        0
176
     1
 90
        0
176
     1
290
     0
176
     1
 90
        1
176
     1
 40
0.0
176
     1
 90
        0
176
     1
290
     0
176
     1
290
     1
176
     1
290
     1
176
     1
290
     0
176
     1
290
     0
176
     1
290
     0
176
     1
290
     0
176
     1
290
     0
176
     1
290
     0
176
     1
 90
       50
176
     1
 40
0.0
176
     1
 40
1.0
176
     1
 90
        0
176
     1
 62
    18
420
        0
176
     1
 90
       50
176
     1
 90
        3
176
     1
 62
     5
420
      255
176
     1
290
     0
176
     1
 90
       50
176
     1
 90
       50
176
     1
 90
       50
176
     1
290
     0
176
     1
 90
       50
176
     1
 62
   256
176
     0
 40
1.0
176
     0
 90
        2
176
     1
  1
strokes_ogs.tif
176
     1
290
     0
176
     1
 40
1.0
176
     1
 40
1.0
176
     1
  0
VISUALSTYLE
  5
2B
102
{ACAD_REACTORS
330
2A
102
}
330
2A
100
AcDbVisualStyle
  2
Flat
 70
     0
177
     3
291
     1
 70
    58
 90
        2
176
     1
 90
        1
176
     1
 90
        1
176
     1
 90
        2
176
     1
 40
0.6
176
     1
 40
30.0
176
     1
 62
     7
420
 16777215
176
     1
 90
        0
176
     1
 90
        0
176
     1
 62
     7
176
     1
 62
   257
176
     1
 90
        1
176
     1
 90
        1
176
     1
 40
1.0
176
     1
 90
        8
176
     1
 62
     7
176
     1
 40
1.0
176
     1
 90
        1
176
     1
 90
        6
176
     1
 90
        2
176
     1
 62
     7
176
     1
 90
        5
176
     1
 90
        0
176
     1
 90
        0
176
     1
290
     0
176
     1
 90
       13
176
     1
 40
0.0
176
     1
 90
        0
176
     1
290
     0
176
     1
290
     1
176
     1
290
     1
176
     1
290
     0
176
     1
290
     0
176
     1
290
     0
176
     1
290
     0
176
     1
290
     0
176
     1
290
     0
176
     1
 90
       50
176
     1
 40
0.0
176
     1
 40
1.0
176
     1
 90
        0
176
     1
 62
    18
420
        0
176
     1
 90
       50
176
     1
 90
        3
176
     1
 62
     5
420
      255
176
     1
290
     0
176
     1
 90
       50
176
     1
 90
       50
176
     1
 90
       50
176
     1
290
     0
176
     1
 90
       50
176
     1
 62
   256
176
     0
 40
1.0
176
     0
 90
        2
176
     1
  1
strokes_ogs.tif
176
     1
290
     0
176
     1
 40
1.0
176
     1
 40
1.0
176
     1
  0
VISUALSTYLE
  5
2C
102
{ACAD_REACTORS
330
2A
102
}
330
2A
100
AcDbVisualStyle
  2
FlatWithEdges
 70
     1
177
     3
291
     1
 70
    58
 90
        2
176
     1
 90
        1
176
     1
 90
        1
176
     1
 90
        2
176
     1
 40
0.6
176
     1
 40
30.0
176
     1
 62
     7
420
 16777215
176
     1
 90
        1
176
     1
 90
        0
176
     1
 62
     7
176
     1
 62
   257
176
     1
 90
        1
176
     1
 90
        1
176
     1
 40
1.0
176
     1
 90
        0
176
     1
 62
   257
176
     1
 40
1.0
176
     1
 90
        1
176
     1
 90
        6
176
     1
 90
        2
176
     1
 62
     7
176
     1
 90
        5
176
     1
 90
        0
176
     1
 90
        0
176
     1
290
     0
176
     1
 90
       13
176
     1
 40
0.0
176
     1
 90
        0
176
     1
290
     0
176
     1
290
     1
176
     1
290
     1
176
     1
290
     0
176
     1
290
     0
176
     1
290
     0
176
     1
290
     0
176
     1
290
     0
176
     1
290
     0
176
     1
 90
       50
176
     1
 40
0.0
176
     1
 40
1.0
176
     1
 90
        0
176
     1
 62
    18
420
        0
176
     1
 90
       50
176
     1
 90
        3
176
     1
 62
     5
420
      255
176
     1
290
     0
176
     1
 90
       50
176
     1
 90
       50
176
     1
 90
       50
176
     1
290
     0
176
     1
 90
       50
176
     1
 62
   256
176
     0
 40
1.0
176
     0
 90
        2
176
     1
  1
strokes_ogs.tif
176
     1
290
     0
176
     1
 40
1.0
176
     1
 40
1.0
176
     1
  0
VISUALSTYLE
  5
2D
102
{ACAD_REACTORS
330
2A
102
}
330
2A
100
AcDbVisualStyle
  2
Gouraud
 70
     2
177
     3
291
     1
 70
    58
 90
        2
176
     1
 90
        2
176
     1
 90
        1
176
     1
 90
        2
176
     1
 40
0.6
176
     1
 40
30.0
176
     1
 62
     7
420
 16777215
176
     1
 90
        0
176
     1
 90
        0
176
     1
 62
     7
176
     1
 62
   257
176
     1
 90
        1
176
     1
 90
        1
176
     1
 40
1.0
176
     1
 90
        0
176
     1
 62
     7
176
     1
 40
1.0
176
     1
 90
        1
176
     1
 90
        6
176
     1
 90
        2
176
     1
 62
     7
176
     1
 90
        5
176
     1
 90
        0
176
     1
 90
        0
176
     1
290
     0
176
     1
 90
       13
176
     1
 40
0.0
176
     1
 90
        0
176
     1
290
     0
176
     1
290
     1
176
     1
290
     1
176
     1
290
     0
176
     1
290
     0
176
     1
290
     0
176
     1
290
     0
176
     1
290
     0
176
     1
290
     0
176
     1
 90
       50
176
     1
 40
0.0
176
     1
 40
1.0
176
     1
 90
        0
176
     1
 62
    18
420
        0
176
     1
 90
       50
176
     1
 90
        3
176
     1
 62
     5
420
      255
176
     1
290
     0
176
     1
 90
       50
176
     1
 90
       50
176
     1
 90
       50
176
     1
290
     0
176
     1
 90
       50
176
     1
 62
   256
176
     0
 40
1.0
176
     0
 90
        2
176
     1
  1
strokes_ogs.tif
176
     1
290
     0
176
     1
 40
1.0
176
     1
 40
1.0
176
     1
  0
VISUALSTYLE
  5
2E
102
{ACAD_REACTORS
330
2A
102
}
330
2A
100
AcDbVisualStyle
  2
GouraudWithEdges
 70
     3
177
     3
291
     1
 70
    58
 90
        2
176
     1
 90
        2
176
     1
 90
        1
176
     1
 90
        2
176
     1
 40
0.6
176
     1
 40
30.0
176
     1
 62
     7
420
 16777215
176
     1
 90
        1
176
     1
 90
        0
176
     1
 62
     7
176
     1
 62
   257
176
     1
 90
        1
176
     1
 90
        1
176
     1
 40
1.0
176
     1
 90
        0
176
     1
 62
   257
176
     1
 40
1.0
176
     1
 90
        1
176
     1
 90
        6
176
     1
 90
        2
176
     1
 62
     7
176
     1
 90
        5
176
     1
 90
        0
176
     1
 90
        0
176
     1
290
     0
176
     1
 90
       13
176
     1
 40
0.0
176
     1
 90
        0
176
     1
290
     0
176
     1
290
     1
176
     1
290
     1
176
     1
290
     0
176
     1
290
     0
176
     1
290
     0
176
     1
290
     0
176
     1
290
     0
176
     1
290
     0
176
     1
 90
       50
176
     1
 40
0.0
176
     1
 40
1.0
176
     1
 90
        0
176
     1
 62
    18
420
        0
176
     1
 90
       50
176
     1
 90
        3
176
     1
 62
     5
420
      255
176
     1
290
     0
176
     1
 90
       50
176
     1
 90
       50
176
     1
 90
       50
176
     1
290
     0
176
     1
 90
       50
176
     1
 62
   256
176
     0
 40
1.0
176
     0
 90
        2
176
     1
  1
strokes_ogs.tif
176
     1
290
     0
176
     1
 40
1.0
176
     1
 40
1.0
176
     1
  0
VISUALSTYLE
  5
31
102
{ACAD_REACTORS
330
2A
102
}
330
2A
100
AcDbVisualStyle
  2
Hidden
 70
     6
177
     3
291
     0
 70
    58
 90
        1
176
     1
 90
        2
176
     1
 90
        2
176
     1
 90
        0
176
     1
 40
0.6
176
     1
 40
30.0
176
     1
 62
     7
420
 16777215
176
     1
 90
        2
176
     1
 90
        2
176
     1
 62
     7
176
     1
 62
   257
176
     1
 90
        2
176
     1
 90
        1
176
     1
 40
40.0
176
     1
 90
        0
176
     1
 62
   257
176
     1
 40
1.0
176
     1
 90
        1
176
     1
 90
        6
176
     1
 90
        2
176
     1
 62
     7
176
     1
 90
        3
176
     1
 90
        0
176
     1
 90
        0
176
     1
290
     0
176
     1
 90
        1
176
     1
 40
0.0
176
     1
 90
        0
176
     1
290
     0
176
     1
290
     1
176
     1
290
     1
176
     1
290
     0
176
     1
290
     0
176
     1
290
     0
176
     1
290
     0
176
     1
290
     0
176
     1
290
     0
176
     1
 90
       50
176
     1
 40
0.0
176
     1
 40
1.0
176
     1
 90
        0
176
     1
 62
    18
420
        0
176
     1
 90
       50
176
     1
 90
        3
176
     1
 62
     5
420
      255
176
     1
290
     0
176
     1
 90
       50
176
     1
 90
       50
176
     1
 90
       50
176
     1
290
     0
176
     1
 90
       50
176
     1
 62
   256
176
     0
 40
1.0
176
     0
 90
        2
176
     1
  1
strokes_ogs.tif
176
     1
290
     0
176
     1
 40
1.0
176
     1
 40
1.0
176
     1
  0
VISUALSTYLE
  5
3B
102
{ACAD_REACTORS
330
2A
102
}
330
2A
100
AcDbVisualStyle
  2
JitterOff
 70
    20
177
     3
291
     1
 70
    58
 90
        2
176
     0
 90
        2
176
     0
 90
        0
176
     0
 90
        0
176
     0
 40
0.6
176
     0
 40
30.0
176
     0
 62
     7
420
 16777215
176
     0
 90
        1
176
     0
 90
        4
176
     0
 62
     7
176
     0
 62
   257
176
     0
 90
        1
176
     0
 90
        1
176
     0
 40
1.0
176
     0
 90
       10
176
     2
 62
     7
176
     0
 40
1.0
176
     0
 90
        1
176
     0
 90
        6
176
     0
 90
        2
176
     0
 62
     7
176
     0
 90
        5
176
     0
 90
        0
176
     0
 90
        0
176
     0
290
     0
176
     0
 90
        1
176
     0
 40
0.0
176
     0
 90
        0
176
     0
290
     0
176
     0
290
     1
176
     0
290
     1
176
     0
290
     0
176
     0
290
     0
176
     0
290
     0
176
     0
290
     0
176
     0
290
     0
176
     0
290
     0
176
     0
 90
       50
176
     0
 40
0.0
176
     0
 40
1.0
176
     0
 90
        0
176
     0
 62
    18
420
        0
176
     0
 90
       50
176
     0
 90
        3
176
     0
 62
     5
420
      255
176
     0
290
     0
176
     0
 90
       50
176
     0
 90
       50
176
     0
 90
       50
176
     0
290
     0
176
     0
 90
       50
176
     0
 62
   256
176
     0
 40
1.0
176
     0
 90
        2
176
     0
  1
strokes_ogs.tif
176
     0
290
     0
176
     0
 40
1.0
176
     0
 40
1.0
176
     0
  0
VISUALSTYLE
  5
38
102
{ACAD_REACTORS
330
2A
102
}
330
2A
100
AcDbVisualStyle
  2
Linepattern
 70
    14
177
     3
291
     1
 70
    58
 90
        2
176
     1
 90
        2
176
     1
 90
        0
176
     1
 90
        0
176
     1
 40
0.6
176
     1
 40
30.0
176
     1
 62
     7
420
 16777215
176
     1
 90
        1
176
     1
 90
        4
176
     1
 62
     7
176
     1
 62
   257
176
     1
 90
        7
176
     1
 90
        7
176
     1
 40
1.0
176
     1
 90
        8
176
     1
 62
     7
176
     1
 40
1.0
176
     1
 90
        1
176
     1
 90
        6
176
     1
 90
        2
176
     1
 62
     7
176
     1
 90
        5
176
     1
 90
        0
176
     1
 90
        0
176
     1
290
     0
176
     1
 90
        1
176
     1
 40
0.0
176
     1
 90
        0
176
     1
290
     0
176
     1
290
     1
176
     1
290
     1
176
     1
290
     0
176
     1
290
     0
176
     1
290
     0
176
     1
290
     0
176
     1
290
     0
176
     1
290
     0
176
     1
 90
       50
176
     1
 40
0.0
176
     1
 40
1.0
176
     1
 90
        0
176
     1
 62
    18
420
        0
176
     1
 90
       50
176
     1
 90
        3
176
     1
 62
     5
420
      255
176
     1
290
     0
176
     1
 90
       50
176
     1
 90
       50
176
     1
 90
       50
176
     1
290
     0
176
     1
 90
       50
176
     1
 62
   256
176
     0
 40
1.0
176
     0
 90
        2
176
     1
  1
strokes_ogs.tif
176
     1
290
     0
176
     1
 40
1.0
176
     1
 40
1.0
176
     1
  0
VISUALSTYLE
  5
3C
102
{ACAD_REACTORS
330
2A
102
}
330
2A
100
AcDbVisualStyle
  2
OverhangOff
 70
    21
177
     3
291
     1
 70
    58
 90
        2
176
     0
 90
        2
176
     0
 90
        0
176
     0
 90
        0
176
     0
 40
0.6
176
     0
 40
30.0
176
     0
 62
     7
420
 16777215
176
     0
 90
        1
176
     0
 90
        4
176
     0
 62
     7
176
     0
 62
   257
176
     0
 90
        1
176
     0
 90
        1
176
     0
 40
1.0
176
     0
 90
        9
176
     2
 62
     7
176
     0
 40
1.0
176
     0
 90
        1
176
     0
 90
        6
176
     0
 90
        2
176
     0
 62
     7
176
     0
 90
        5
176
     0
 90
        0
176
     0
 90
        0
176
     0
290
     0
176
     0
 90
        1
176
     0
 40
0.0
176
     0
 90
        0
176
     0
290
     0
176
     0
290
     1
176
     0
290
     1
176
     0
290
     0
176
     0
290
     0
176
     0
290
     0
176
     0
290
     0
176
     0
290
     0
176
     0
290
     0
176
     0
 90
       50
176
     0
 40
0.0
176
     0
 40
1.0
176
     0
 90
        0
176
     0
 62
    18
420
        0
176
     0
 90
       50
176
     0
 90
        3
176
     0
 62
     5
420
      255
176
     0
290
     0
176
     0
 90
       50
176
     0
 90
       50
176
     0
 90
       50
176
     0
290
     0
176
     0
 90
       50
176
     0
 62
   256
176
     0
 40
1.0
176
     0
 90
        2
176
     0
  1
strokes_ogs.tif
176
     0
290
     0
176
     0
 40
1.0
176
     0
 40
1.0
176
     0
  0
VISUALSTYLE
  5
33
102
{ACAD_REACTORS
330
2A
102
}
330
2A
100
AcDbVisualStyle
  2
Realistic
 70
     8
177
     3
291
     0
 70
    58
 90
        2
176
     1
 90
        3
176
     1
 90
        0
176
     1
 90
        2
176
     1
 40
0.6
176
     1
 40
30.0
176
     1
 62
     7
420
 16777215
176
     1
 90
        0
176
     1
 90
        0
176
     1
 62
     7
176
     1
 62
   257
176
     1
 90
        1
176
     1
 90
        1
176
     1
 40
1.0
176
     1
 90
        8
176
     1
 62
   257
176
     1
 40
1.0
176
     1
 90
        1
176
     1
 90
        6
176
     1
 90
        2
176
     1
 62
     7
176
     1
 90
        3
176
     1
 90
        0
176
     1
 90
        0
176
     1
290
     0
176
     1
 90
       13
176
     1
 40
0.0
176
     1
 90
        0
176
     1
290
     0
176
     1
290
     1
176
     1
290
     1
176
     1
290
     0
176
     1
290
     0
176
     1
290
     0
176
     1
290
     0
176
     1
290
     0
176
     1
290
     0
176
     1
 90
       50
176
     1
 40
0.0
176
     1
 40
1.0
176
     1
 90
        0
176
     1
 62
    18
420
        0
176
     1
 90
       50
176
     1
 90
        3
176
     1
 62
     5
420
      255
176
     1
290
     0
176
     1
 90
       50
176
     1
 90
       50
176
     1
 90
       50
176
     1
290
     0
176
     1
 90
       50
176
     1
 62
   256
176
     0
 40
1.0
176
     0
 90
        2
176
     1
  1
strokes_ogs.tif
176
     1
290
     0
176
     1
 40
1.0
176
     1
 40
1.0
176
     1
  0
VISUALSTYLE
  5
42
102
{ACAD_REACTORS
330
2A
102
}
330
2A
100
AcDbVisualStyle
  2
Shaded
 70
    27
177
     3
291
     0
 70
    58
 90
        2
176
     1
 90
        2
176
     1
 90
        1
176
     1
 90
        2
176
     1
 40
0.6
176
     1
 40
30.0
176
     1
 62
     7
420
 16777215
176
     1
 90
        0
176
     1
 90
        4
176
     1
 62
     7
176
     1
 62
   257
176
     1
 90
        1
176
     1
 90
        1
176
     1
 40
1.0
176
     1
 90
        8
176
     1
 62
   257
176
     1
 40
1.0
176
     1
 90
        1
176
     1
 90
        6
176
     1
 90
        2
176
     1
 62
     8
420
  7895160
176
     1
 90
        3
176
     1
 90
        0
176
     1
 90
        0
176
     1
290
     0
176
     1
 90
        5
176
     1
 40
0.0
176
     1
 90
        0
176
     1
290
     0
176
     1
290
     1
176
     1
290
     1
176
     1
290
     0
176
     1
290
     0
176
     1
290
     0
176
     1
290
     0
176
     1
290
     0
176
     1
290
     0
176
     1
 90
       50
176
     1
 40
0.0
176
     1
 40
1.0
176
     1
 90
        0
176
     1
 62
    18
420
        0
176
     1
 90
       50
176
     1
 90
        3
176
     1
 62
     5
420
      255
176
     1
290
     0
176
     1
 90
       50
176
     1
 90
       50
176
     1
 90
       50
176
     1
290
     0
176
     1
 90
       50
176
     1
 62
   256
176
     0
 40
1.0
176
     0
 90
        2
176
     1
  1
strokes_ogs.tif
176
     1
290
     0
176
     1
 40
1.0
176
     1
 40
1.0
176
     1
  0
VISUALSTYLE
  5
41
102
{ACAD_REACTORS
330
2A
102
}
330
2A
100
AcDbVisualStyle
  2
Shaded with edges
 70
    26
177
     3
291
     0
 70
    58
 90
        2
176
     1
 90
        2
176
     1
 90
        1
176
     1
 90
        2
176
     1
 40
0.6
176
     1
 40
30.0
176
     1
 62
     7
420
 16777215
176
     1
 90
        1
176
     1
 90
       10
176
     1
 62
     7
176
     1
 62
   257
176
     1
 90
        2
176
     1
 90
        1
176
     1
 40
1.0
176
     1
 90
        8
176
     1
 62
   257
176
     1
 40
1.0
176
     1
 90
        1
176
     1
 90
        6
176
     1
 90
        2
176
     1
 62
     7
176
     1
 90
        3
176
     1
 90
        0
176
     1
 90
        0
176
     1
290
     0
176
     1
 90
        5
176
     1
 40
0.0
176
     1
 90
        0
176
     1
290
     0
176
     1
290
     1
176
     1
290
     1
176
     1
290
     0
176
     1
290
     0
176
     1
290
     0
176
     1
290
     0
176
     1
290
     0
176
     1
290
     0
176
     1
 90
       50
176
     1
 40
0.0
176
     1
 40
1.0
176
     1
 90
        0
176
     1
 62
    18
420
        0
176
     1
 90
       50
176
     1
 90
        3
176
     1
 62
     5
420
      255
176
     1
290
     0
176
     1
 90
       50
176
     1
 90
       50
176
     1
 90
       50
176
     1
290
     0
176
     1
 90
       50
176
     1
 62
   256
176
     0
 40
1.0
176
     0
 90
        2
176
     1
  1
strokes_ogs.tif
176
     1
290
     0
176
     1
 40
1.0
176
     1
 40
1.0
176
     1
  0
VISUALSTYLE
  5
3E
102
{ACAD_REACTORS
330
2A
102
}
330
2A
100
AcDbVisualStyle
  2
Shades of Gray
 70
    23
177
     3
291
     0
 70
    58
 90
        2
176
     1
 90
        2
176
     1
 90
        3
176
     1
 90
        0
176
     1
 40
0.6
176
     1
 40
30.0
176
     1
 62
     7
420
 16777215
176
     1
 90
        2
176
     1
 90
        2
176
     1
 62
     7
176
     1
 62
     7
176
     1
 90
        1
176
     1
 90
        1
176
     1
 40
40.0
176
     1
 90
        8
176
     1
 62
     7
176
     1
 40
1.0
176
     1
 90
        1
176
     1
 90
        6
176
     1
 90
        2
176
     1
 62
     7
176
     1
 90
        3
176
     1
 90
        0
176
     1
 90
        0
176
     1
290
     0
176
     1
 90
        1
176
     1
 40
0.0
176
     1
 90
        0
176
     1
290
     0
176
     1
290
     1
176
     1
290
     1
176
     1
290
     0
176
     1
290
     0
176
     1
290
     0
176
     1
290
     0
176
     1
290
     0
176
     1
290
     0
176
     1
 90
       50
176
     1
 40
0.0
176
     1
 40
1.0
176
     1
 90
        0
176
     1
 62
    18
420
        0
176
     1
 90
       50
176
     1
 90
        3
176
     1
 62
     5
420
      255
176
     1
290
     0
176
     1
 90
       50
176
     1
 90
       50
176
     1
 90
       50
176
     1
290
     0
176
     1
 90
       50
176
     1
 62
   256
176
     0
 40
1.0
176
     0
 90
        2
176
     1
  1
strokes_ogs.tif
176
     1
290
     0
176
     1
 40
1.0
176
     1
 40
1.0
176
     1
  0
VISUALSTYLE
  5
3F
102
{ACAD_REACTORS
330
2A
102
}
330
2A
100
AcDbVisualStyle
  2
Sketchy
 70
    24
177
     3
291
     0
 70
    58
 90
        1
176
     1
 90
        2
176
     1
 90
        2
176
     1
 90
        0
176
     1
 40
0.6
176
     1
 40
30.0
176
     1
 62
     7
420
 16777215
176
     1
 90
        2
176
     1
 90
        2
176
     1
 62
     7
176
     1
 62
     7
176
     1
 90
        1
176
     1
 90
        1
176
     1
 40
40.0
176
     1
 90
       11
176
     1
 62
     7
176
     1
 40
1.0
176
     1
 90
        1
176
     1
 90
        6
176
     1
 90
        2
176
     1
 62
     7
176
     1
 90
        6
176
     1
 90
        0
176
     1
 90
        0
176
     1
290
     0
176
     1
 90
        1
176
     1
 40
0.0
176
     1
 90
        0
176
     1
290
     0
176
     1
290
     1
176
     1
290
     1
176
     1
290
     0
176
     1
290
     0
176
     1
290
     0
176
     1
290
     0
176
     1
290
     0
176
     1
290
     0
176
     1
 90
       50
176
     1
 40
0.0
176
     1
 40
1.0
176
     1
 90
        0
176
     1
 62
    18
420
        0
176
     1
 90
       50
176
     1
 90
        3
176
     1
 62
     5
420
      255
176
     1
290
     0
176
     1
 90
       50
176
     1
 90
       50
176
     1
 90
       50
176
     1
290
     0
176
     1
 90
       50
176
     1
 62
   256
176
     0
 40
1.0
176
     0
 90
        2
176
     1
  1
strokes_ogs.tif
176
     1
290
     0
176
     1
 40
1.0
176
     1
 40
1.0
176
     1
  0
VISUALSTYLE
  5
37
102
{ACAD_REACTORS
330
2A
102
}
330
2A
100
AcDbVisualStyle
  2
Thicken
 70
    13
177
     3
291
     1
 70
    58
 90
        2
176
     1
 90
        2
176
     1
 90
        0
176
     1
 90
        0
176
     1
 40
0.6
176
     1
 40
30.0
176
     1
 62
     7
420
 16777215
176
     1
 90
        1
176
     1
 90
        4
176
     1
 62
     7
176
     1
 62
   257
176
     1
 90
        1
176
     1
 90
        1
176
     1
 40
1.0
176
     1
 90
       12
176
     1
 62
     7
176
     1
 40
1.0
176
     1
 90
        1
176
     1
 90
        6
176
     1
 90
        2
176
     1
 62
     7
176
     1
 90
        5
176
     1
 90
        0
176
     1
 90
        0
176
     1
290
     0
176
     1
 90
        1
176
     1
 40
0.0
176
     1
 90
        0
176
     1
290
     0
176
     1
290
     1
176
     1
290
     1
176
     1
290
     0
176
     1
290
     0
176
     1
290
     0
176
     1
290
     0
176
     1
290
     0
176
     1
290
     0
176
     1
 90
       50
176
     1
 40
0.0
176
     1
 40
1.0
176
     1
 90
        0
176
     1
 62
    18
420
        0
176
     1
 90
       50
176
     1
 90
        3
176
     1
 62
     5
420
      255
176
     1
290
     0
176
     1
 90
       50
176
     1
 90
       50
176
     1
 90
       50
176
     1
290
     0
176
     1
 90
       50
176
     1
 62
   256
176
     0
 40
1.0
176
     0
 90
        2
176
     1
  1
strokes_ogs.tif
176
     1
290
     0
176
     1
 40
1.0
176
     1
 40
1.0
176
     1
  0
VISUALSTYLE
  5
30
102
{ACAD_REACTORS
330
2A
102
}
330
2A
100
AcDbVisualStyle
  2
Wireframe
 70
     5
177
     3
291
     0
 70
    58
 90
        0
176
     1
 90
        2
176
     1
 90
        0
176
     1
 90
        0
176
     1
 40
0.6
176
     1
 40
30.0
176
     1
 62
     7
420
 16777215
176
     1
 90
        1
176
     1
 90
        4
176
     1
 62
     7
176
     1
 62
   257
176
     1
 90
        1
176
     1
 90
        1
176
     1
 40
1.0
176
     1
 90
        0
176
     1
 62
   257
176
     1
 40
1.0
176
     1
 90
        1
176
     1
 90
        6
176
     1
 90
        2
176
     1
 62
     7
176
     1
 90
        3
176
     1
 90
        0
176
     1
 90
        0
176
     1
290
     0
176
     1
 90
        1
176
     1
 40
0.0
176
     1
 90
        0
176
     1
290
     0
176
     1
290
     1
176
     1
290
     1
176
     1
290
     0
176
     1
290
     0
176
     1
290
     0
176
     1
290
     0
176
     1
290
     0
176
     1
290
     0
176
     1
 90
       50
176
     1
 40
0.0
176
     1
 40
1.0
176
     1
 90
        0
176
     1
 62
    18
420
        0
176
     1
 90
       50
176
     1
 90
        3
176
     1
 62
     5
420
      255
176
     1
290
     0
176
     1
 90
       50
176
     1
 90
       50
176
     1
 90
       50
176
     1
290
     0
176
     1
 90
       50
176
     1
 62
   256
176
     0
 40
1.0
176
     0
 90
        2
176
     1
  1
strokes_ogs.tif
176
     1
290
     0
176
     1
 40
1.0
176
     1
 40
1.0
176
     1
  0
VISUALSTYLE
  5
40
102
{ACAD_REACTORS
330
2A
102
}
330
2A
100
AcDbVisualStyle
  2
X-Ray
 70
    25
177
     3
291
     0
 70
    58
 90
        2
176
     1
 90
        2
176
     1
 90
        1
176
     1
 90
        1
176
     1
 40
0.5
176
     1
 40
30.0
176
     1
 62
     7
420
 16777215
176
     1
 90
        1
176
     1
 90
        0
176
     1
 62
     7
176
     1
 62
   257
176
     1
 90
        1
176
     1
 90
        1
176
     1
 40
1.0
176
     1
 90
        8
176
     1
 62
     7
176
     1
 40
1.0
176
     1
 90
        1
176
     1
 90
        6
176
     1
 90
        2
176
     1
 62
     7
176
     1
 90
        3
176
     1
 90
        0
176
     1
 90
        0
176
     1
290
     0
176
     1
 90
       13
176
     1
 40
0.0
176
     1
 90
        0
176
     1
290
     0
176
     1
290
     1
176
     1
290
     1
176
     1
290
     0
176
     1
290
     0
176
     1
290
     0
176
     1
290
     0
176
     1
290
     0
176
     1
290
     0
176
     1
 90
       50
176
     1
 40
0.0
176
     1
 40
1.0
176
     1
 90
        0
176
     1
 62
    18
420
        0
176
     1
 90
       50
176
     1
 90
        3
176
     1
 62
     5
420
      255
176
     1
290
     0
176
     1
 90
       50
176
     1
 90
       50
176
     1
 90
       50
176
     1
290
     0
176
     1
 90
       50
176
     1
 62
   256
176
     0
 40
1.0
176
     0
 90
        2
176
     1
  1
strokes_ogs.tif
176
     1
290
     0
176
     1
 40
1.0
176
     1
 40
1.0
176
     1
  0
DICTIONARYVAR
  5
5A7
102
{ACAD_REACTORS
330
5A6
102
}
330
5A6
100
DictionaryVariables
280
     0
  1
1:1
  0
DICTIONARYVAR
  5
5AC
102
{ACAD_REACTORS
330
5A6
102
}
330
5A6
100
DictionaryVariables
280
     0
  1
Standard
  0
DICTIONARYVAR
  5
5AB
102
{ACAD_REACTORS
330
5A6
102
}
330
5A6
100
DictionaryVariables
280
     0
  1
Standard
  0
DICTIONARY
  5
5A8
330
6A
100
AcDbDictionary
280
     1
281
     1
  3
ACAD_ROUNDTRIP_2008_TABLESTYLE_CELLSTYLEMAP
360
5A9
  0
CELLSTYLEMAP
  5
5A9
102
{ACAD_REACTORS
330
5A8
102
}
330
5A8
100
AcDbCellStyleMap
 90
        3
300
CELLSTYLE
  1
TABLEFORMAT_BEGIN
 90
        5
170
     1
 91
        0
 92
    32768
 62
   257
 93
        1
300
CONTENTFORMAT
  1
CONTENTFORMAT_BEGIN
 90
        0
 91
        0
 92
        4
 93
        0
300

 40
0.0
140
1.0
 94
        5
 62
     0
340
11
144
6.0
309
CONTENTFORMAT_END
171
     1
301
MARGIN
  1
CELLMARGIN_BEGIN
 40
1.5
 40
1.5
 40
1.5
 40
1.5
 40
1.5
 40
1.5
309
CELLMARGIN_END
 94
        6
 95
        1
302
GRIDFORMAT
  1
GRIDFORMAT_BEGIN
 90
        0
 91
        1
 62
     0
 92
       -2
340
14
 93
        0
 40
0.045
309
GRIDFORMAT_END
 95
        2
302
GRIDFORMAT
  1
GRIDFORMAT_BEGIN
 90
        0
 91
        1
 62
     0
 92
       -2
340
14
 93
        0
 40
0.045
309
GRIDFORMAT_END
 95
        4
302
GRIDFORMAT
  1
GRIDFORMAT_BEGIN
 90
        0
 91
        1
 62
     0
 92
       -2
340
14
 93
        0
 40
0.045
309
GRIDFORMAT_END
 95
        8
302
GRIDFORMAT
  1
GRIDFORMAT_BEGIN
 90
        0
 91
        1
 62
     0
 92
       -2
340
14
 93
        0
 40
0.045
309
GRIDFORMAT_END
 95
       16
302
GRIDFORMAT
  1
GRIDFORMAT_BEGIN
 90
        0
 91
        1
 62
     0
 92
       -2
340
14
 93
        0
 40
0.045
309
GRIDFORMAT_END
 95
       32
302
GRIDFORMAT
  1
GRIDFORMAT_BEGIN
 90
        0
 91
        1
 62
     0
 92
       -2
340
14
 93
        0
 40
0.045
309
GRIDFORMAT_END
309
TABLEFORMAT_END
  1
CELLSTYLE_BEGIN
 90
        1
 91
        1
300
_TITLE
309
CELLSTYLE_END
300
CELLSTYLE
  1
TABLEFORMAT_BEGIN
 90
        5
170
     1
 91
        0
 92
        0
 62
   257
 93
        1
300
CONTENTFORMAT
  1
CONTENTFORMAT_BEGIN
 90
        0
 91
        0
 92
        4
 93
        0
300

 40
0.0
140
1.0
 94
        5
 62
     0
340
11
144
4.5
309
CONTENTFORMAT_END
171
     1
301
MARGIN
  1
CELLMARGIN_BEGIN
 40
1.5
 40
1.5
 40
1.5
 40
1.5
 40
1.5
 40
1.5
309
CELLMARGIN_END
 94
        6
 95
        1
302
GRIDFORMAT
  1
GRIDFORMAT_BEGIN
 90
        0
 91
        1
 62
     0
 92
       -2
340
14
 93
        0
 40
0.045
309
GRIDFORMAT_END
 95
        2
302
GRIDFORMAT
  1
GRIDFORMAT_BEGIN
 90
        0
 91
        1
 62
     0
 92
       -2
340
14
 93
        0
 40
0.045
309
GRIDFORMAT_END
 95
        4
302
GRIDFORMAT
  1
GRIDFORMAT_BEGIN
 90
        0
 91
        1
 62
     0
 92
       -2
340
14
 93
        0
 40
0.045
309
GRIDFORMAT_END
 95
        8
302
GRIDFORMAT
  1
GRIDFORMAT_BEGIN
 90
        0
 91
        1
 62
     0
 92
       -2
340
14
 93
        0
 40
0.045
309
GRIDFORMAT_END
 95
       16
302
GRIDFORMAT
  1
GRIDFORMAT_BEGIN
 90
        0
 91
        1
 62
     0
 92
       -2
340
14
 93
        0
 40
0.045
309
GRIDFORMAT_END
 95
       32
302
GRIDFORMAT
  1
GRIDFORMAT_BEGIN
 90
        0
 91
        1
 62
     0
 92
       -2
340
14
 93
        0
 40
0.045
309
GRIDFORMAT_END
309
TABLEFORMAT_END
  1
CELLSTYLE_BEGIN
 90
        2
 91
        1
300
_HEADER
309
CELLSTYLE_END
300
CELLSTYLE
  1
TABLEFORMAT_BEGIN
 90
        5
170
     1
 91
        0
 92
        0
 62
   257
 93
        1
300
CONTENTFORMAT
  1
CONTENTFORMAT_BEGIN
 90
        0
 91
        0
 92
        4
 93
        0
300

 40
0.0
140
1.0
 94
        2
 62
     0
340
11
144
4.5
309
CONTENTFORMAT_END
171
     1
301
MARGIN
  1
CELLMARGIN_BEGIN
 40
1.5
 40
1.5
 40
1.5
 40
1.5
 40
1.5
 40
1.5
309
CELLMARGIN_END
 94
        6
 95
        1
302
GRIDFORMAT
  1
GRIDFORMAT_BEGIN
 90
        0
 91
        1
 62
     0
 92
       -2
340
14
 93
        0
 40
0.045
309
GRIDFORMAT_END
 95
        2
302
GRIDFORMAT
  1
GRIDFORMAT_BEGIN
 90
        0
 91
        1
 62
     0
 92
       -2
340
14
 93
        0
 40
0.045
309
GRIDFORMAT_END
 95
        4
302
GRIDFORMAT
  1
GRIDFORMAT_BEGIN
 90
        0
 91
        1
 62
     0
 92
       -2
340
14
 93
        0
 40
0.045
309
GRIDFORMAT_END
 95
        8
302
GRIDFORMAT
  1
GRIDFORMAT_BEGIN
 90
        0
 91
        1
 62
     0
 92
       -2
340
14
 93
        0
 40
0.045
309
GRIDFORMAT_END
 95
       16
302
GRIDFORMAT
  1
GRIDFORMAT_BEGIN
 90
        0
 91
        1
 62
     0
 92
       -2
340
14
 93
        0
 40
0.045
309
GRIDFORMAT_END
 95
       32
302
GRIDFORMAT
  1
GRIDFORMAT_BEGIN
 90
        0
 91
        1
 62
     0
 92
       -2
340
14
 93
        0
 40
0.045
309
GRIDFORMAT_END
309
TABLEFORMAT_END
  1
CELLSTYLE_BEGIN
 90
        3
 91
        2
300
_DATA
309
CELLSTYLE_END
  0
ENDSEC
  0
EOF
